[ create a new paste ] login | about

Link: http://codepad.org/YYctvWve    [ raw code | fork ]

Plain Text, pasted on Nov 23:
foobar2000 1.3.10 / Dynamic Range Meter 1.1.1
log date: 2016-07-18 22:39:05

--------------------------------------------------------------------------------
Analyzed: 10 cc / Timeless (1)
          Black / Timeless (2)
          Boyz II Men / Timeless (3)
          Captain & Tennille / Timeless (4)
          Chris De Burgh / Timeless (5)
          Commodores / Timeless (6)
          Gino Vannelli / Timeless (7)
          Joe Cocker & Jennfier Warnes / Timeless (8)
          Kenny Rogers / Timeless (9)
          Kool & The Gang / Timeless (10)
          Lionel Richie / Timeless (11)
          Marvin Gaye & Diana Ross / Timeless (12)
          Michael Jackson / Timeless (13)
          Neil Sedaka / Timeless (14)
          Peter Frampton / Timeless (15)
          Sergio Mendes / Timeless (16)
          Stevie Wonder / Timeless (17)
          The Players / Timeless (18)
--------------------------------------------------------------------------------

DR         Peak         RMS     Duration Track
--------------------------------------------------------------------------------
DR8       -3.83 dB   -13.75 dB      6:01 07-I'm Not In Love
DR11      -0.51 dB   -14.30 dB      4:22 18-Sweetest Smile
DR13      -1.43 dB   -16.23 dB      3:11 14-It's So Hard To Say Goodbye To Yesterday
DR8       -2.91 dB   -14.34 dB      4:13 05-Do That To Me One More Time
DR9       -2.97 dB   -13.46 dB      4:18 03-The Lady In Red
DR12      -1.46 dB   -17.92 dB      3:40 11-Three Times A Lady
DR8       -2.48 dB   -12.10 dB      3:41 17-I just Wanna Stop
DR10      -2.87 dB   -15.49 dB      3:55 04-Up Where We Belong
DR10      -2.65 dB   -16.62 dB      3:49 06-Lady
DR12      -0.30 dB   -13.66 dB      5:43 15-Cherish
DR8       -4.58 dB   -15.85 dB      4:10 02-Hello
DR11      -1.24 dB   -14.97 dB      3:10 09-You Are Everything
DR10      -2.23 dB   -14.12 dB      4:20 08-One Day In Your Life
DR9       -2.79 dB   -14.19 dB      2:50 10-Laughter In The Rain
DR10      -1.36 dB   -13.76 dB      4:43 16-Baby I Love Your Way
DR8       -2.94 dB   -12.17 dB      4:18 01-Never Gonna Let You Go
DR8       -2.16 dB   -12.36 dB      2:54 12-My Cherie Amour
DR13      -0.01 dB   -15.68 dB      3:36 13-Baby Come Back
--------------------------------------------------------------------------------

Number of tracks:  18
Official DR value: DR10

Samplerate:        88200 Hz
Channels:          2
Bits per sample:   24
Bitrate:           2639 kbps
Codec:             FLAC
================================================================================




Create a new paste based on this one


Comments: