[ create a new paste ] login | about

Link: http://codepad.org/YamKGl6V    [ raw code | fork ]

Plain Text, pasted on Aug 22:
foobar2000 1.4.6 / Dynamic Range Meter 1.1.1
log date: 2019-08-22 14:13:29

--------------------------------------------------------------------------------
Analyzed: Andy Jackson / Signal To Noise
--------------------------------------------------------------------------------

DR         Peak         RMS     Duration Track
--------------------------------------------------------------------------------
DR10      -0.15 dB   -11.63 dB      7:08 01-The Boy In The Forest
DR8       -0.01 dB   -10.69 dB      4:21 02-One More Push
DR9       -0.41 dB   -11.63 dB      4:48 03-Invisible Colours
DR10      -0.47 dB   -14.02 dB      3:33 04-Spray Paint
DR9       -0.07 dB   -11.95 dB      9:57 05-Herman At The Fountain
DR12      -0.56 dB   -15.88 dB      3:47 06-It All Came Crashing Down
DR8       -0.12 dB   -10.51 dB      7:18 07-Brownian Motion
--------------------------------------------------------------------------------

Number of tracks:  7
Official DR value: DR10

Samplerate:        96000 Hz
Channels:          2
Bits per sample:   24
Bitrate:           2938 kbps
Codec:             FLAC
================================================================================




Create a new paste based on this one


Comments: