[ create a new paste ] login | about

Link: http://codepad.org/YcfdYagB    [ raw code | fork ]

Plain Text, pasted on Jun 25:
Exact Audio Copy V1.3 from 2. September 2016

EAC extraction logfile from 12. June 2019, 19:21

Be Bop Deluxe / Futurama CD3

Used drive  : PLEXTOR BD-R  PX-B950SA   Adapter: 1  ID: 1

Read mode               : Secure
Utilize accurate stream : Yes
Defeat audio cache      : Yes
Make use of C2 pointers : No

Read offset correction                      : 6
Overread into Lead-In and Lead-Out          : No
Fill up missing offset samples with silence : Yes
Delete leading and trailing silent blocks   : No
Null samples used in CRC calculations       : Yes
Used interface                              : Native Win32 interface for Win NT & 2000

Used output format : Internal WAV Routines
Sample format      : 44.100 Hz; 16 Bit; Stereo


TOC of the extracted CD

     Track |   Start  |  Length  | Start sector | End sector 
    ---------------------------------------------------------
        1  |  0:00.00 |  3:23.39 |         0    |    15263   
        2  |  3:23.39 |  3:35.20 |     15264    |    31408   
        3  |  6:58.59 |  2:20.48 |     31409    |    41956   
        4  |  9:19.32 |  2:46.69 |     41957    |    54475   
        5  | 12:06.26 |  3:47.59 |     54476    |    71559   
        6  | 15:54.10 |  3:16.13 |     71560    |    86272   
        7  | 19:10.23 |  5:57.65 |     86273    |   113112   
        8  | 25:08.13 |  4:19.12 |    113113    |   132549   
        9  | 29:27.25 |  5:20.11 |    132550    |   156560   
       10  | 34:47.36 |  2:36.32 |    156561    |   168292   
       11  | 37:23.68 |  5:15.28 |    168293    |   191945   


Range status and errors

Selected range

     Filename C:\Be Bop Deluxe\1975 Futurama (4-Disc Box Set Esoteric Records 2019)\CD3\Be Bop Deluxe - Futurama CD3.wav

     Peak level 98.8 %
     Extraction speed 6.7 X
     Range quality 100.0 %
     Test CRC CF3CEF27
     Copy CRC CF3CEF27
     Copy OK

No errors occurred

 
AccurateRip summary
 
Track  1  not present in database
Track  2  not present in database
Track  3  not present in database
Track  4  not present in database
Track  5  not present in database
Track  6  not present in database
Track  7  not present in database
Track  8  not present in database
Track  9  not present in database
Track 10  not present in database
Track 11  not present in database
 
None of the tracks are present in the AccurateRip database

End of status report

---- CUETools DB Plugin V2.1.6

[CTDB TOCID: GUAQPHmqof43wY8YPFSMT8X2ECo-] found
Submit result: GUAQPHmqof43wY8YPFSMT8X2ECo- has been confirmed
Track | CTDB Status
  1   | (2/3) Accurately ripped, or (1/3) differs in 16 samples @03:23:38-03:23:39
  2   | (2/3) Accurately ripped, or (1/3) differs in 190 samples @00:00:00,03:35:19-03:35:20
  3   | (2/3) Accurately ripped, or (1/3) differs in 194 samples @00:00:00,02:20:47-02:20:48
  4   | (2/3) Accurately ripped, or (1/3) differs in 197 samples @00:00:00,02:46:68-02:46:69
  5   | (2/3) Accurately ripped, or (1/3) differs in 193 samples @00:00:00,03:47:58-03:47:59
  6   | (2/3) Accurately ripped, or (1/3) differs in 433 samples @00:00:00,03:16:12-03:16:13
  7   | (2/3) Accurately ripped, or (1/3) differs in 431 samples @00:00:00,05:57:64-05:57:65
  8   | (2/3) Accurately ripped, or (1/3) differs in 438 samples @00:00:00,04:19:11-04:19:12
  9   | (2/3) Accurately ripped, or (1/3) differs in 428 samples @00:00:00,05:20:10-05:20:11
 10   | (2/3) Accurately ripped, or (1/3) differs in 427 samples @00:00:00,02:36:31-02:36:32
 11   | (2/3) Accurately ripped, or (1/3) differs in 414 samples @00:00:00


==== Log checksum 1589327A0C9014ABE5DF3BE68FBC59F02F21805643CB3952AFC3C9F93CE51D60 ====



Create a new paste based on this one


Comments: