[ create a new paste ] login | about

Link: http://codepad.org/Yjgerame    [ raw code | fork ]

Plain Text, pasted on Dec 20:
[CUETools log; Date: 12/20/2019 5:32:42 PM; Version: 2.1.7]
[CTDB TOCID: oedqYHho6ZQFeWpClYTOiG7BiTo-] found.
Track | CTDB Status
  1   | (290/290) Accurately ripped
  2   | (290/290) Accurately ripped
  3   | (290/290) Accurately ripped
  4   | (289/290) Accurately ripped
  5   | (290/290) Accurately ripped
  6   | (290/290) Accurately ripped
  7   | (290/290) Accurately ripped
  8   | (290/290) Accurately ripped
  9   | (290/290) Accurately ripped
[AccurateRip ID: 000af922-004e7d50-6f06e109] found.
Track   [  CRC   |   V2   ] Status
 01     [b4a0d959|0b7c1c05] (00+19/21) Accurately ripped
 02     [89ad8a26|08feba53] (00+19/21) Accurately ripped
 03     [8ea55350|3098b646] (00+19/21) Accurately ripped
 04     [cae101b8|1988c58f] (00+19/21) Accurately ripped
 05     [fc45918b|31319acf] (00+19/21) Accurately ripped
 06     [4a7c551a|b504ee89] (00+19/21) Accurately ripped
 07     [641620eb|e369e8f4] (00+19/21) Accurately ripped
 08     [ba8f35be|1a453cb9] (00+19/21) Accurately ripped
 09     [643c2e69|943c5969] (00+18/20) Accurately ripped
Offsetted by 12:
 01     [657e60d5] (00/21) No match (V2 was not tested)
 02     [76a72cd0] (00/21) No match (V2 was not tested)
 03     [806d4eba] (00/21) No match (V2 was not tested)
 04     [c0d4a718] (00/21) No match (V2 was not tested)
 05     [865ad1ec] (00/21) No match (V2 was not tested)
 06     [19701467] (00/21) No match (V2 was not tested)
 07     [5b670ce9] (00/21) No match (V2 was not tested)
 08     [6201ffeb] (00/21) No match (V2 was not tested)
 09     [8fc6c7f2] (00/20) No match (V2 was not tested)

Track Peak [ CRC32  ] [W/O NULL] 
 --  100.0 [88934A66] [D2EC6BF7]           
 01  100.0 [484C1CC7] [9AD63598]           
 02   81.3 [A147C0DC] [DED60EFD]           
 03   99.9 [65F9B71C] [69EC6B1E]           
 04   99.6 [AD55A7B1] [739B689E]           
 05  100.0 [96B1B894] [E0191025]           
 06   79.7 [87920033] [A0940191]           
 07  100.0 [9212BECE] [BE03B1E5]           
 08   92.0 [E0800FBC] [E8DC1AAE]           
 09   89.4 [ADC675E1] [F9FA7B32]           



Create a new paste based on this one


Comments: