[ create a new paste ] login | about

Link: http://codepad.org/YleUXNYl    [ raw code | fork ]

Plain Text, pasted on May 21:
Exact Audio Copy V1.1 from 23. June 2015

EAC extraction logfile from 16. May 2016, 13:48

Various Artists / Girls Girls Girls! 75 Songs About Girls Girls Girls! (CD 1)

Used drive  : hp      CDDVDW SH-216BB   Adapter: 1  ID: 0

Read mode               : Secure
Utilize accurate stream : Yes
Defeat audio cache      : Yes
Make use of C2 pointers : No

Read offset correction                      : 6
Overread into Lead-In and Lead-Out          : No
Fill up missing offset samples with silence : Yes
Delete leading and trailing silent blocks   : No
Null samples used in CRC calculations       : Yes
Used interface                              : Native Win32 interface for Win NT & 2000

Used output format : Internal WAV Routines
Sample format      : 44.100 Hz; 16 Bit; Stereo


TOC of the extracted CD

     Track |   Start  |  Length  | Start sector | End sector 
    ---------------------------------------------------------
        1  |  0:00.00 |  2:06.12 |         0    |     9461   
        2  |  2:06.12 |  2:38.36 |      9462    |    21347   
        3  |  4:44.48 |  2:16.57 |     21348    |    31604   
        4  |  7:01.30 |  2:05.14 |     31605    |    40993   
        5  |  9:06.44 |  1:57.34 |     40994    |    49802   
        6  | 11:04.03 |  3:00.13 |     49803    |    63315   
        7  | 14:04.16 |  2:27.45 |     63316    |    74385   
        8  | 16:31.61 |  2:08.29 |     74386    |    84014   
        9  | 18:40.15 |  1:51.50 |     84015    |    92389   
       10  | 20:31.65 |  2:23.28 |     92390    |   103142   
       11  | 22:55.18 |  2:21.60 |    103143    |   113777   
       12  | 25:17.03 |  2:07.26 |    113778    |   123328   
       13  | 27:24.29 |  2:04.41 |    123329    |   132669   
       14  | 29:28.70 |  1:51.58 |    132670    |   141052   
       15  | 31:20.53 |  2:20.01 |    141053    |   151553   
       16  | 33:40.54 |  2:02.21 |    151554    |   160724   
       17  | 35:43.00 |  2:29.26 |    160725    |   171925   
       18  | 38:12.26 |  2:19.31 |    171926    |   182381   
       19  | 40:31.57 |  2:27.43 |    182382    |   193449   
       20  | 42:59.25 |  2:00.30 |    193450    |   202479   
       21  | 44:59.55 |  2:18.00 |    202480    |   212829   
       22  | 47:17.55 |  2:09.26 |    212830    |   222530   
       23  | 49:27.06 |  2:55.56 |    222531    |   235711   
       24  | 52:22.62 |  1:57.16 |    235712    |   244502   
       25  | 54:20.03 |  1:53.35 |    244503    |   253012   


Range status and errors

Selected range

     Filename C:\Users\Arturs\Desktop\Various Artists - Girls Girls Girls! 75 Songs About Girls Girls Girls! (CD 1).wav

     Peak level 99.9 %
     Extraction speed 7.3 X
     Range quality 100.0 %
     Test CRC B961A353
     Copy CRC B961A353
     Copy OK

No errors occurred

 
AccurateRip summary
 
Track  1  not present in database
Track  2  not present in database
Track  3  not present in database
Track  4  not present in database
Track  5  not present in database
Track  6  not present in database
Track  7  not present in database
Track  8  not present in database
Track  9  not present in database
Track 10  not present in database
Track 11  not present in database
Track 12  not present in database
Track 13  not present in database
Track 14  not present in database
Track 15  not present in database
Track 16  not present in database
Track 17  not present in database
Track 18  not present in database
Track 19  not present in database
Track 20  not present in database
Track 21  not present in database
Track 22  not present in database
Track 23  not present in database
Track 24  not present in database
Track 25  not present in database
 
None of the tracks are present in the AccurateRip database

End of status report

---- CUETools DB Plugin V2.1.6

[CTDB TOCID: sXLt4ls6Wnx23yqc9W3ybeTNu_o-] found
Submit result: sXLt4ls6Wnx23yqc9W3ybeTNu_o- has been confirmed
Track | CTDB Status
  1   | (1/1) Accurately ripped
  2   | (1/1) Accurately ripped
  3   | (1/1) Accurately ripped
  4   | (1/1) Accurately ripped
  5   | (1/1) Accurately ripped
  6   | (1/1) Accurately ripped
  7   | (1/1) Accurately ripped
  8   | (1/1) Accurately ripped
  9   | (1/1) Accurately ripped
 10   | (1/1) Accurately ripped
 11   | (1/1) Accurately ripped
 12   | (1/1) Accurately ripped
 13   | (1/1) Accurately ripped
 14   | (1/1) Accurately ripped
 15   | (1/1) Accurately ripped
 16   | (1/1) Accurately ripped
 17   | (1/1) Accurately ripped
 18   | (1/1) Accurately ripped
 19   | (1/1) Accurately ripped
 20   | (1/1) Accurately ripped
 21   | (1/1) Accurately ripped
 22   | (1/1) Accurately ripped
 23   | (1/1) Accurately ripped
 24   | (1/1) Accurately ripped
 25   | (1/1) Accurately ripped


==== Log checksum A399640A192A2EE3A584C221979B5C0B47ED862FFD4E8AD1033A1A94D34240B9 ====



Create a new paste based on this one


Comments: