[ create a new paste ] login | about

Link: http://codepad.org/Ym2ydQXz    [ raw code | fork ]

Plain Text, pasted on Jul 25:
foobar2000 1.3.17 / Dynamic Range Meter 1.1.1
log date: 2018-07-25 09:39:36

--------------------------------------------------------------------------------
Analyzed: Dean Martin / The Door Is Still Open To My Heart
--------------------------------------------------------------------------------

DR         Peak         RMS     Duration Track
--------------------------------------------------------------------------------
DR11      -0.36 dB   -14.84 dB      2:55 01-The Door Is Still Open To My Heart
DR11       0.00 dB   -13.58 dB      2:51 02-We'll Sing In The Sunshine
DR10      -0.77 dB   -13.18 dB      2:32 03-I'm Gonna Change Everything
DR10      -0.92 dB   -13.63 dB      2:50 04-The Middle Of The Night Is My Cryin' Time
DR12      -1.12 dB   -15.09 dB      2:11 05-Every Minute, Every Hour
DR10      -1.07 dB   -13.13 dB      2:25 06-Clinging Vine
DR10      -0.97 dB   -13.14 dB      2:46 07-In The Misty Moonlight
DR10       0.00 dB   -13.57 dB      2:52 08-Always Together
DR10      -0.74 dB   -13.44 dB      3:00 09-My Sugar's Gone
DR10       0.00 dB   -13.27 dB      1:59 10-You're Nobody Till Somebody Loves You
DR11       0.00 dB   -14.69 dB      2:47 11-Take Me
DR11      -0.14 dB   -13.44 dB      2:35 12-So Long Baby
--------------------------------------------------------------------------------

Number of tracks:  12
Official DR value: DR10

Samplerate:        96000 Hz
Channels:          2
Bits per sample:   24
Bitrate:           2787 kbps
Codec:             FLAC
================================================================================




Create a new paste based on this one


Comments: