[ create a new paste ] login | about

Link: http://codepad.org/YmHN1ti5    [ raw code | fork ]

Plain Text, pasted on Aug 14:
foobar2000 1.3.17 / Dynamic Range Meter 1.1.1
log date: 2018-08-14 11:42:22

--------------------------------------------------------------------------------
Analyzed: Pete Whitman's  Xtet / Where's When
--------------------------------------------------------------------------------

DR         Peak         RMS     Duration Track
--------------------------------------------------------------------------------
DR13      -0.31 dB   -26.19 dB      6:02 01-Where's When
DR12      -1.12 dB   -25.96 dB      5:57 02-Devil Dance
DR12      -1.32 dB   -26.58 dB      5:54 03-Child's Play
DR12      -4.88 dB   -29.08 dB      4:12 04-In Your Own Sweet Way
DR14      -0.95 dB   -28.88 dB      9:08 05-Epicycle
DR11      -5.76 dB   -29.60 dB      6:19 06-Points Of View
DR11      -1.09 dB   -25.43 dB      4:34 07-Showers
DR13      -0.01 dB   -29.28 dB      9:46 08-Hmm...
DR9      -12.25 dB   -32.17 dB      2:34 09-Sweet Whisperer
DR14      -2.11 dB   -27.51 dB      7:19 10-Star Eyes
--------------------------------------------------------------------------------

Number of tracks:  10
Official DR value: DR12

Samplerate:        88200 Hz
Channels:          5
Bits per sample:   24
Bitrate:           5113 kbps
Codec:             FLAC
================================================================================




Create a new paste based on this one


Comments: