[ create a new paste ] login | about

Link: http://codepad.org/YnGcEVZ0    [ raw code | fork ]

Plain Text, pasted on Dec 5:
Exact Audio Copy V1.1 from 23. June 2015

EAC extraction logfile from 2. December 2016, 10:46

Lou Reed / Perfect Night: Live In London

Used drive  : PLEXTOR BD-R  PX-B950SA   Adapter: 1  ID: 1

Read mode               : Secure
Utilize accurate stream : Yes
Defeat audio cache      : Yes
Make use of C2 pointers : No

Read offset correction                      : 6
Overread into Lead-In and Lead-Out          : No
Fill up missing offset samples with silence : Yes
Delete leading and trailing silent blocks   : No
Null samples used in CRC calculations       : Yes
Used interface                              : Native Win32 interface for Win NT & 2000

Used output format : Internal WAV Routines
Sample format      : 44.100 Hz; 16 Bit; Stereo


TOC of the extracted CD

     Track |   Start  |  Length  | Start sector | End sector 
    ---------------------------------------------------------
        1  |  0:00.00 |  3:19.27 |         0    |    14951   
        2  |  3:19.27 |  3:50.48 |     14952    |    32249   
        3  |  7:10.00 |  4:26.25 |     32250    |    52224   
        4  | 11:36.25 |  5:40.27 |     52225    |    77751   
        5  | 17:16.52 |  4:27.20 |     77752    |    97796   
        6  | 21:43.72 |  4:15.63 |     97797    |   116984   
        7  | 25:59.60 |  3:50.67 |    116985    |   134301   
        8  | 29:50.52 |  3:34.23 |    134302    |   150374   
        9  | 33:25.00 |  6:10.45 |    150375    |   178169   
       10  | 39:35.45 |  6:07.32 |    178170    |   205726   
       11  | 45:43.02 |  2:38.70 |    205727    |   217646   
       12  | 48:21.72 |  4:13.15 |    217647    |   236636   
       13  | 52:35.12 |  4:48.50 |    236637    |   258286   
       14  | 57:23.62 |  2:55.63 |    258287    |   271474   
       15  | 60:19.50 |  6:05.60 |    271475    |   298909   


Range status and errors

Selected range

     Filename C:\Lou Reed\2015 Sire Years Complete Albums (10CD Box Set Rhino Records)\1998 Perfect Night Live In London\Lou Reed - Perfect Night Live In London.wav

     Peak level 98.8 %
     Extraction speed 8.2 X
     Range quality 100.0 %
     Test CRC 3A2534F0
     Copy CRC 3A2534F0
     Copy OK

No errors occurred

 
AccurateRip summary
 
Track  1  accurately ripped (confidence 5)  [B2F97185]  (AR v2)
Track  2  accurately ripped (confidence 5)  [BB0D7065]  (AR v2)
Track  3  accurately ripped (confidence 5)  [B77B3194]  (AR v2)
Track  4  accurately ripped (confidence 5)  [6EA74F88]  (AR v2)
Track  5  accurately ripped (confidence 5)  [04EA5997]  (AR v2)
Track  6  accurately ripped (confidence 5)  [0691097F]  (AR v2)
Track  7  accurately ripped (confidence 5)  [1DEF9D3E]  (AR v2)
Track  8  accurately ripped (confidence 5)  [F571700D]  (AR v2)
Track  9  accurately ripped (confidence 5)  [CF85406E]  (AR v2)
Track 10  accurately ripped (confidence 6)  [7F3C74AF]  (AR v2)
Track 11  accurately ripped (confidence 5)  [FC020860]  (AR v2)
Track 12  accurately ripped (confidence 5)  [BB6AC12B]  (AR v2)
Track 13  accurately ripped (confidence 5)  [4E15BE9C]  (AR v2)
Track 14  accurately ripped (confidence 5)  [2B244375]  (AR v2)
Track 15  accurately ripped (confidence 5)  [CD531BAD]  (AR v2)
 
All tracks accurately ripped

End of status report

---- CUETools DB Plugin V2.1.6

[CTDB TOCID: tfbZbIJFSBFGpGNWgdWDEW3NhQE-] found
Submit result: tfbZbIJFSBFGpGNWgdWDEW3NhQE- has been confirmed
Track | CTDB Status
  1   | (109/110) Accurately ripped
  2   | (107/110) Accurately ripped
  3   | (108/110) Accurately ripped
  4   | (107/110) Accurately ripped
  5   | (107/110) Accurately ripped
  6   | (107/110) Accurately ripped
  7   | (108/110) Accurately ripped
  8   | (107/110) Accurately ripped
  9   | (108/110) Accurately ripped
 10   | (108/110) Accurately ripped
 11   | (108/110) Accurately ripped
 12   | (108/110) Accurately ripped
 13   | (105/110) Accurately ripped
 14   | (106/110) Accurately ripped
 15   | (102/110) Accurately ripped


==== Log checksum D84CB12397872BE55559E6D60925F7B55CDA8B209474335ED9BB2876CC046EF7 ====



Create a new paste based on this one


Comments: