[ create a new paste ] login | about

Link: http://codepad.org/Yr2VQ9Kx    [ raw code | fork ]

Plain Text, pasted on Feb 28:
Exact Audio Copy V0.99 prebeta 5 from 4. May 2009

EAC extraction logfile from 18. August 2009, 14:10

The Smiths / Singles Box (Disc9)

Used drive  : PLEXTOR DVDR   PX-716A   Adapter: 3  ID: 0

Read mode               : Secure
Utilize accurate stream : Yes
Defeat audio cache      : Yes
Make use of C2 pointers : No

Read offset correction                      : 30
Overread into Lead-In and Lead-Out          : Yes
Fill up missing offset samples with silence : Yes
Delete leading and trailing silent blocks   : No
Null samples used in CRC calculations       : Yes
Used interface                              : Native Win32 interface for Win NT & 2000
Gap handling                                : Appended to previous track

Used output format              : User Defined Encoder
Selected bitrate                : 128 kBit/s
Quality                         : High
Add ID3 tag                     : No
Command line compressor         : C:\Program Files\FLAC\flac.exe
Additional command line options : -8 -V -T "ARTIST=%a" -T "TITLE=%t" -T "ALBUM=%g" -T "DATE=%y" -T "TRACKNUMBER=%n" -T "GENRE=%m" -T "COMMENT=EAC FLAC -8" %s


TOC of the extracted CD

     Track |   Start  |  Length  | Start sector | End sector 
    ---------------------------------------------------------
        1  |  0:00.00 |  3:52.73 |         0    |    17472   
        2  |  3:52.73 |  2:10.19 |     17473    |    27241   
        3  |  6:03.17 |  2:46.31 |     27242    |    39722   


Track  1

     Filename C:\Lossless\The Smiths - Singles Box (2009) [FLAC] (12CD Boxset)\Disc9\01 - Barbarism Begins At Home.wav

     Pre-gap length  0:00:02.00

     Peak level 98.8 %
     Track quality 100.0 %
     Test CRC 7F9744C0
     Copy CRC 7F9744C0
     Track not present in AccurateRip database
     Copy OK

Track  2

     Filename C:\Lossless\The Smiths - Singles Box (2009) [FLAC] (12CD Boxset)\Disc9\02 - Shakespeare's Sister.wav

     Pre-gap length  0:00:02.08

     Peak level 98.2 %
     Track quality 100.0 %
     Test CRC 2BBA030D
     Copy CRC 2BBA030D
     Track not present in AccurateRip database
     Copy OK

Track  3

     Filename C:\Lossless\The Smiths - Singles Box (2009) [FLAC] (12CD Boxset)\Disc9\03 - Stretch Out And Wait.wav

     Pre-gap length  0:00:02.08

     Peak level 98.9 %
     Track quality 100.0 %
     Test CRC 2F60C686
     Copy CRC 2F60C686
     Track not present in AccurateRip database
     Copy OK


None of the tracks are present in the AccurateRip database

No errors occurred

End of status report



Create a new paste based on this one


Comments: