[ create a new paste ] login | about

Link: http://codepad.org/YsRLowPm    [ raw code | fork ]

Plain Text, pasted on Mar 15:
CD-QUALITY
::::::::::

foobar2000 1.6.4 / Dynamic Range Meter 1.1.1
log date: 2021-03-15 02:12:05

--------------------------------------------------------------------------------
Analyzed: Danny Elfman / Beetlejuice
--------------------------------------------------------------------------------

DR         Peak         RMS     Duration Track
--------------------------------------------------------------------------------
DR11      -1.76 dB   -18.25 dB      2:28 01-Main Titles
DR12      -4.48 dB   -21.74 dB      1:07 02-Travel Music
DR11      -4.59 dB   -21.80 dB      1:29 03-The Book! / Obituaries
DR15      -0.07 dB   -21.86 dB      2:50 04-Enter..."The Family" - Sand Worm Planet
DR13      -2.26 dB   -21.01 dB      0:48 05-The Fly
DR10      -9.27 dB   -23.60 dB      0:57 06-Lydia Discovers
DR12      -3.85 dB   -22.52 dB      1:46 07-In The Model
DR12      -3.67 dB   -21.63 dB      0:32 08-Juno's Theme
DR12      -1.36 dB   -20.70 dB      2:08 09-Beetle-Snake
DR12     -14.24 dB   -32.96 dB      0:33 10-"Sold"
DR13      -2.46 dB   -21.58 dB      1:23 11-The Flier / Lydia's Pep Talk
DR12      -6.04 dB   -21.63 dB      3:04 12-Day-O
DR11      -2.54 dB   -18.47 dB      3:12 13-The Incantation
DR11      -3.45 dB   -20.52 dB      0:51 14-Lydia Strikes A Bargain...
DR11      -0.17 dB   -18.43 dB      1:07 15-Showtime!
DR13      -1.08 dB   -20.13 dB      2:33 16-"Laughs"
DR12      -2.73 dB   -21.05 dB      2:03 17-The Wedding
DR12      -6.70 dB   -23.87 dB      1:21 18-The Aftermath
DR14      -0.03 dB   -22.01 dB      2:48 19-End Credits
DR13      -7.86 dB   -22.18 dB      3:43 20-Jump In The Line (Shake, Shake, Señora)
--------------------------------------------------------------------------------

Number of tracks:  20
Official DR value: DR12

Samplerate:        44100 Hz
Channels:          2
Bits per sample:   16
Bitrate:           770 kbps
Codec:             FLAC
================================================================================



HI-RES
::::::

foobar2000 1.6.4 / Dynamic Range Meter 1.1.1
log date: 2021-03-15 02:12:14

--------------------------------------------------------------------------------
Analyzed: Danny Elfman / Beetlejuice
--------------------------------------------------------------------------------

DR         Peak         RMS     Duration Track
--------------------------------------------------------------------------------
DR11      -1.67 dB   -18.25 dB      2:28 01-Main Titles
DR12      -4.47 dB   -21.73 dB      1:07 02-Travel Music
DR11      -4.59 dB   -21.79 dB      1:29 03-The Book! / Obituaries
DR15      -0.05 dB   -21.85 dB      2:50 04-Enter..."The Family" - Sand Worm Planet
DR13      -2.05 dB   -21.01 dB      0:48 05-The Fly
DR10      -9.26 dB   -23.60 dB      0:57 06-Lydia Discovers
DR12      -3.85 dB   -22.52 dB      1:46 07-In The Model
DR12      -3.34 dB   -21.62 dB      0:32 08-Juno's Theme
DR12      -1.28 dB   -20.70 dB      2:08 09-Beetle-Snake
DR12     -14.23 dB   -32.95 dB      0:33 10-"Sold"
DR13      -2.44 dB   -21.58 dB      1:23 11-The Flier / Lydia's Pep Talk
DR12      -6.00 dB   -21.62 dB      3:04 12-Day-O
DR11      -2.52 dB   -18.47 dB      3:12 13-The Incantation
DR11      -3.44 dB   -20.52 dB      0:51 14-Lydia Strikes A Bargain...
DR11      -0.05 dB   -18.42 dB      1:07 15-Showtime!
DR13      -1.03 dB   -20.13 dB      2:33 16-"Laughs"
DR13      -2.70 dB   -21.04 dB      2:03 17-The Wedding
DR12      -6.69 dB   -24.02 dB      1:21 18-The Aftermath
DR14      -0.05 dB   -22.00 dB      2:48 19-End Credits
DR13      -7.80 dB   -22.18 dB      3:43 20-Jump In The Line (Shake, Shake, Señora)
--------------------------------------------------------------------------------

Number of tracks:  20
Official DR value: DR12

Samplerate:        96000 Hz
Channels:          2
Bits per sample:   24
Bitrate:           2808 kbps
Codec:             FLAC
================================================================================




Create a new paste based on this one


Comments: