[ create a new paste ] login | about

Link: http://codepad.org/Ytq8CzsJ    [ raw code | fork ]

Plain Text, pasted on Feb 1:
CD-QUALITY
----------

foobar2000 1.6 / Dynamic Range Meter 1.1.1
log date: 2021-02-01 06:33:18

--------------------------------------------------------------------------------
Analyzed: Lisa Kim / OK Human (1)
          Weezer / OK Human (2-12)
--------------------------------------------------------------------------------

DR         Peak         RMS     Duration Track
--------------------------------------------------------------------------------
DR8        0.00 dB   -10.43 dB      3:23 01-All My Favorite Songs
DR7        0.00 dB    -9.15 dB      3:04 02-Aloo Gobi
DR7        0.00 dB    -8.57 dB      2:51 03-Grapes Of Wrath
DR7        0.00 dB    -9.89 dB      3:21 04-Numbers
DR8        0.00 dB   -10.23 dB      2:36 05-Playing My Piano
DR7        0.00 dB    -9.94 dB      1:17 06-Mirror Image
DR7        0.00 dB    -8.71 dB      2:12 07-Screens
DR8        0.00 dB   -10.20 dB      3:51 08-Bird With A Broken Wing
DR7       -0.06 dB    -9.55 dB      2:17 09-Dead Roses
DR11      -9.99 dB   -22.47 dB      0:24 10-Everything Happens For A Reason
DR7        0.00 dB    -8.42 dB      2:27 11-Here Comes The Rain
DR8        0.00 dB   -10.14 dB      2:50 12-La Brea Tar Pits
--------------------------------------------------------------------------------

Number of tracks:  12
Official DR value: DR8

Samplerate:        44100 Hz
Channels:          2
Bits per sample:   16
Bitrate:           864 kbps
Codec:             FLAC
================================================================================



HI-RES 24/96
------------

foobar2000 1.6 / Dynamic Range Meter 1.1.1
log date: 2021-02-01 06:33:26

--------------------------------------------------------------------------------
Analyzed: Lisa Kim / OK Human (1)
          Weezer / OK Human (2-12)
--------------------------------------------------------------------------------

DR         Peak         RMS     Duration Track
--------------------------------------------------------------------------------
DR8       -0.05 dB   -10.43 dB      3:23 01-All My Favorite Songs
DR7       -0.03 dB    -9.15 dB      3:04 02-Aloo Gobi
DR7       -0.02 dB    -8.57 dB      2:51 03-Grapes Of Wrath
DR7       -0.03 dB    -9.89 dB      3:21 04-Numbers
DR8       -0.07 dB   -10.23 dB      2:36 05-Playing My Piano
DR7       -0.07 dB    -9.93 dB      1:17 06-Mirror Image
DR7       -0.06 dB    -8.69 dB      2:12 07-Screens
DR8       -0.04 dB   -10.20 dB      3:51 08-Bird With A Broken Wing
DR7       -0.09 dB    -9.55 dB      2:17 09-Dead Roses
DR11      -9.94 dB   -22.48 dB      0:24 10-Everything Happens For A Reason
DR7       -0.04 dB    -8.42 dB      2:27 11-Here Comes The Rain
DR8       -0.06 dB   -10.14 dB      2:50 12-La Brea Tar Pits
--------------------------------------------------------------------------------

Number of tracks:  12
Official DR value: DR7

Samplerate:        96000 Hz
Channels:          2
Bits per sample:   24
Bitrate:           2997 kbps
Codec:             FLAC
================================================================================



HI-RES 24/192

foobar2000 1.6 / Dynamic Range Meter 1.1.1
log date: 2021-02-01 06:23:24

--------------------------------------------------------------------------------
Analyzed: Lisa Kim / OK Human (1)
          Weezer / OK Human (2-12)
--------------------------------------------------------------------------------

DR         Peak         RMS     Duration Track
--------------------------------------------------------------------------------
DR8       -0.10 dB   -10.43 dB      3:23 01-All My Favorite Songs
DR7       -0.10 dB    -9.15 dB      3:04 02-Aloo Gobi
DR7       -0.10 dB    -8.57 dB      2:51 03-Grapes Of Wrath
DR7       -0.10 dB    -9.89 dB      3:21 04-Numbers
DR8       -0.10 dB   -10.30 dB      2:36 05-Playing My Piano
DR7       -0.10 dB    -9.93 dB      1:17 06-Mirror Image
DR7       -0.10 dB    -8.69 dB      2:12 07-Screens
DR7       -0.10 dB   -10.25 dB      3:51 08-Bird With A Broken Wing
DR7       -0.10 dB    -9.55 dB      2:17 09-Dead Roses
DR11      -9.94 dB   -22.48 dB      0:24 10-Everything Happens For A Reason
DR7       -0.10 dB    -8.42 dB      2:27 11-Here Comes The Rain
DR8       -0.10 dB   -10.14 dB      2:50 12-La Brea Tar Pits
--------------------------------------------------------------------------------

Number of tracks:  12
Official DR value: DR7

Samplerate:        192000 Hz
Channels:          2
Bits per sample:   24
Bitrate:           5355 kbps
Codec:             FLAC
================================================================================




Create a new paste based on this one


Comments: