[ create a new paste ] login | about

Link: http://codepad.org/YuZqzw48    [ raw code | fork ]

Plain Text, pasted on Mar 9:
foobar2000 1.3.17 / Dynamic Range Meter 1.1.1
log date: 2018-03-08 17:12:28

--------------------------------------------------------------------------------
Analyzed: Lynyrd Skynyrd / Nuthin' Fancy
--------------------------------------------------------------------------------

DR         Peak         RMS     Duration Track
--------------------------------------------------------------------------------
DR13      -7.11 dB   -22.41 dB      5:09 01-Saturday Night Special
DR13      -4.36 dB   -21.88 dB      4:39 02-Cheatin' Woman
DR14      -5.74 dB   -22.31 dB      4:15 03-Railroad Song
DR13      -6.20 dB   -21.50 dB      4:23 04-I'm A Country Boy
DR14      -6.17 dB   -21.95 dB      5:27 05-On The Hunt
DR14      -6.07 dB   -22.42 dB      4:35 06-Am I Losin'
DR15      -6.83 dB   -24.58 dB      4:38 07-Made In The Shade
DR14      -7.00 dB   -22.40 dB      4:19 08-Whiskey Rock-a-Roller
--------------------------------------------------------------------------------

Number of tracks:  8
Official DR value: DR14

Samplerate:        2822400 Hz / PCM Samplerate: 176400 Hz
Channels:          2
Bits per sample:   1
Bitrate:           5645 kbps
Codec:             DSD64
================================================================================




Create a new paste based on this one


Comments: