[ create a new paste ] login | about

Link: http://codepad.org/Z3Sx2Arn    [ raw code | fork ]

Plain Text, pasted on Dec 17:
Exact Audio Copy V1.0 beta 3 from 29. August 2011

EAC extraction logfile from 17. November 2016, 18:21

Black Sabbath / Live at Montreux 1970

Used drive  : HL-DT-STBD-RE  WH12LS39   Adapter: 1  ID: 1

Read mode               : Secure
Utilize accurate stream : Yes
Defeat audio cache      : Yes
Make use of C2 pointers : No

Read offset correction                      : 667
Overread into Lead-In and Lead-Out          : No
Fill up missing offset samples with silence : Yes
Delete leading and trailing silent blocks   : No
Null samples used in CRC calculations       : Yes
Used interface                              : Native Win32 interface for Win NT & 2000
Gap handling                                : Appended to previous track

Used output format              : User Defined Encoder
Selected bitrate                : 1024 kBit/s
Quality                         : High
Add ID3 tag                     : No
Command line compressor         : C:\Program Files (x86)\Exact Audio Copy\FLAC\FLAC.EXE
Additional command line options : -8 -V -T "ARTIST=%artist%" -T "TITLE=%title%" -T "ALBUM=%albumtitle%" -T "DATE=%year%" -T "TRACKNUMBER=%tracknr%" -T "GENRE=%genre%" -T "PERFORMER=%albuminterpret%" -T "COMPOSER=%composer%" %haslyrics%--tag-from-file=LYRICS="%lyricsfile%"%haslyrics% -T "ALBUMARTIST=%albumartist%" -T "DISCNUMBER=%cdnumber%" -T "TOTALDISCS=%totalcds%" -T "TOTALTRACKS=%numtracks%" -T "COMMENT=%comment%" %source% -o %dest%


TOC of the extracted CD

     Track |   Start  |  Length  | Start sector | End sector 
    ---------------------------------------------------------
        1  |  0:00.00 |  1:22.36 |         0    |     6185   
        2  |  1:22.36 |  2:59.28 |      6186    |    19638   
        3  |  4:21.64 |  5:45.01 |     19639    |    45514   
        4  | 10:06.65 |  6:03.57 |     45515    |    72796   
        5  | 16:10.47 |  6:23.50 |     72797    |   101571   
        6  | 22:34.22 |  7:43.51 |    101572    |   136347   
        7  | 30:17.73 |  8:42.71 |    136348    |   175568   
        8  | 39:00.69 |  8:30.52 |    175569    |   213870   


Track  1

     Filename E:\Rips\Black Sabbath\Paranoid Super Deluxe\Disc 3 - Live in Montreux 1970\01 Intro.wav

     Pre-gap length  0:00:02.00

     Peak level 97.0 %
     Extraction speed 0.8 X
     Track quality 100.0 %
     Test CRC 7F2EB95B
     Copy CRC 7F2EB95B
     Track not present in AccurateRip database
     Copy OK

Track  2

     Filename E:\Rips\Black Sabbath\Paranoid Super Deluxe\Disc 3 - Live in Montreux 1970\02 Paranoid.wav

     Peak level 97.0 %
     Extraction speed 1.0 X
     Track quality 100.0 %
     Test CRC BB7805EB
     Copy CRC BB7805EB
     Track not present in AccurateRip database
     Copy OK

Track  3

     Filename E:\Rips\Black Sabbath\Paranoid Super Deluxe\Disc 3 - Live in Montreux 1970\03 N.I.B..wav

     Peak level 97.0 %
     Extraction speed 1.3 X
     Track quality 100.0 %
     Test CRC 4F56E6FE
     Copy CRC 4F56E6FE
     Track not present in AccurateRip database
     Copy OK

Track  4

     Filename E:\Rips\Black Sabbath\Paranoid Super Deluxe\Disc 3 - Live in Montreux 1970\04 Behind The Wall Of Sleep.wav

     Peak level 97.0 %
     Extraction speed 1.5 X
     Track quality 100.0 %
     Test CRC A0DAACE5
     Copy CRC A0DAACE5
     Track not present in AccurateRip database
     Copy OK

Track  5

     Filename E:\Rips\Black Sabbath\Paranoid Super Deluxe\Disc 3 - Live in Montreux 1970\05 Iron Man.wav

     Peak level 97.0 %
     Extraction speed 1.6 X
     Track quality 100.0 %
     Test CRC D514C88C
     Copy CRC D514C88C
     Track not present in AccurateRip database
     Copy OK

Track  6

     Filename E:\Rips\Black Sabbath\Paranoid Super Deluxe\Disc 3 - Live in Montreux 1970\06 War Pigs.wav

     Peak level 97.0 %
     Extraction speed 1.8 X
     Track quality 100.0 %
     Test CRC B46DA169
     Copy CRC B46DA169
     Track not present in AccurateRip database
     Copy OK

Track  7

     Filename E:\Rips\Black Sabbath\Paranoid Super Deluxe\Disc 3 - Live in Montreux 1970\07 Fairies Wear Boots.wav

     Peak level 97.0 %
     Extraction speed 2.0 X
     Track quality 100.0 %
     Test CRC D702C105
     Copy CRC D702C105
     Track not present in AccurateRip database
     Copy OK

Track  8

     Filename E:\Rips\Black Sabbath\Paranoid Super Deluxe\Disc 3 - Live in Montreux 1970\08 Hand Of Doom.wav

     Peak level 97.0 %
     Extraction speed 2.2 X
     Track quality 100.0 %
     Test CRC 692538F7
     Copy CRC 692538F7
     Track not present in AccurateRip database
     Copy OK


None of the tracks are present in the AccurateRip database

No errors occurred

End of status report

---- CUETools DB Plugin V2.1.4

[CTDB TOCID: ccueytlQSGC5Pdl_jYuQeXeoB5Q-] found
Submit result: ccueytlQSGC5Pdl_jYuQeXeoB5Q- has been confirmed
Track | CTDB Status
  1   | (5/5) Accurately ripped
  2   | (5/5) Accurately ripped
  3   | (5/5) Accurately ripped
  4   | (5/5) Accurately ripped
  5   | (5/5) Accurately ripped
  6   | (5/5) Accurately ripped
  7   | (5/5) Accurately ripped
  8   | (5/5) Accurately ripped


==== Log checksum 8A7B17ADE6AB73E4063AF8F91ACCA2B95E10B037F42222D5CB8FD5253FEAF8EE ====



Create a new paste based on this one


Comments: