[ create a new paste ] login | about

Link: http://codepad.org/ZAWah2Fq    [ raw code | fork ]

Plain Text, pasted on May 11:
Exact Audio Copy V0.99 prebeta 5 from 4. May 2009

EAC extraction logfile from 21. July 2010, 0:35

TESLA / GOLD (DISK 2)

Used drive  : PIONEER DVD-RW  DVR-118L   Adapter: 0  ID: 1

Read mode               : Secure
Utilize accurate stream : Yes
Defeat audio cache      : Yes
Make use of C2 pointers : No

Read offset correction                      : 6
Overread into Lead-In and Lead-Out          : No
Fill up missing offset samples with silence : Yes
Delete leading and trailing silent blocks   : No
Null samples used in CRC calculations       : Yes
Used interface                              : Native Win32 interface for Win NT & 2000

Used output format : Internal WAV Routines
Sample format      : 44.100 Hz; 16 Bit; Stereo


TOC of the extracted CD

     Track |   Start  |  Length  | Start sector | End sector 
    ---------------------------------------------------------
        1  |  0:00.00 |  4:48.20 |         0    |    21619   
        2  |  4:48.20 |  4:29.17 |     21620    |    41811   
        3  |  9:17.37 |  8:30.42 |     41812    |    80103   
        4  | 17:48.04 |  7:16.42 |     80104    |   112845   
        5  | 25:04.46 |  6:12.50 |    112846    |   140795   
        6  | 31:17.21 |  5:45.17 |    140796    |   166687   
        7  | 37:02.38 |  5:11.19 |    166688    |   190031   
        8  | 42:13.57 |  4:52.37 |    190032    |   211968   
        9  | 47:06.19 |  5:46.31 |    211969    |   237949   
       10  | 52:52.50 |  4:23.30 |    237950    |   257704   
       11  | 57:16.05 |  4:26.63 |    257705    |   277717   
       12  | 61:42.68 |  4:40.07 |    277718    |   298724   
       13  | 66:23.00 |  4:51.29 |    298725    |   320578   
       14  | 71:14.29 |  4:46.12 |    320579    |   342040   


Range status and errors

Selected range

     Filename D:\PIPETKA\Tesla [2008] Gold (2CD's)\disk 2\TESLA - GOLD (DISK 2).wav

     Peak level 100.0 %
     Range quality 100.0 %
     Test CRC 538A8302
     Copy CRC 538A8302
     Copy OK

No errors occurred

 
AccurateRip summary
 
Track  1  accurately ripped (confidence 6)  [938757F5]
Track  2  accurately ripped (confidence 6)  [EFDDCD39]
Track  3  accurately ripped (confidence 6)  [CD6DBEE8]
Track  4  accurately ripped (confidence 6)  [4A550136]
Track  5  accurately ripped (confidence 6)  [0D2A07D4]
Track  6  accurately ripped (confidence 6)  [CC4F6C1B]
Track  7  accurately ripped (confidence 6)  [F7BC3559]
Track  8  accurately ripped (confidence 6)  [F2C5CA36]
Track  9  accurately ripped (confidence 6)  [12CC7A48]
Track 10  accurately ripped (confidence 6)  [C44B880E]
Track 11  accurately ripped (confidence 6)  [08D91FB9]
Track 12  accurately ripped (confidence 6)  [77E1F9C8]
Track 13  accurately ripped (confidence 6)  [A99CFF15]
Track 14  accurately ripped (confidence 5)  [09A248BC]
 
All tracks accurately ripped

End of status report



Create a new paste based on this one


Comments: