[ create a new paste ] login | about

Link: http://codepad.org/ZCd3cGUo    [ raw code | fork ]

Plain Text, pasted on Nov 16:
foobar2000 1.4.6 / Dynamic Range Meter 1.1.1
log date: 2019-11-15 23:43:39

--------------------------------------------------------------------------------
Analyzed: Alexis Cole / The World's Greatest Audiophile Vocal Recordings Vol. III (1)
          Amber Rubarth / The World's Greatest Audiophile Vocal Recordings Vol. III (2)
          Anna Nalick / The World's Greatest Audiophile Vocal Recordings Vol. III (3)
          Camille Thurman / The World's Greatest Audiophile Vocal Recordings Vol. III (4)
          Casey Abrams / The World's Greatest Audiophile Vocal Recordings Vol. III (5)
          Little Kruta / The World's Greatest Audiophile Vocal Recordings Vol. III (6)
          Livingston Taylor / The World's Greatest Audiophile Vocal Recordings Vol. III (7)
          Macy Gray / The World's Greatest Audiophile Vocal Recordings Vol. III (8)
          Melissa Menago / The World's Greatest Audiophile Vocal Recordings Vol. III (9)
          Priya Darshini / The World's Greatest Audiophile Vocal Recordings Vol. III (10)
          The New Appalachians  / The World's Greatest Audiophile Vocal Recordings Vol. III (11)
          Xiomara Laugart / The World's Greatest Audiophile Vocal Recordings Vol. III (12)
--------------------------------------------------------------------------------

DR         Peak         RMS     Duration Track
--------------------------------------------------------------------------------
DR13      -0.23 dB   -17.79 dB      4:04 10-Ain't We Got Fun
DR11      -0.09 dB   -15.48 dB      4:36 12-Losing My Religion
DR12      -3.48 dB   -20.73 dB      3:16 07-As Time Goes By
DR14      -0.09 dB   -19.69 dB      5:04 04-The Nearness Of You
DR12      -0.30 dB   -16.76 dB      3:00 05-Why Don't You Do Right
DR15      -0.31 dB   -19.65 dB      3:47 01-Harvester of Sorrow
DR12      -0.17 dB   -15.35 dB      2:56 11-I Must Be Doing Something Right
DR13      -0.03 dB   -14.77 dB      4:17 02-I Try
DR13      -0.27 dB   -17.02 dB      4:05 09-Smoke Signs
DR12      -0.30 dB   -15.62 dB      5:29 03-Home
DR14      -0.29 dB   -19.99 dB      5:38 06-Wayfaring Stranger
DR14      -0.97 dB   -17.65 dB      4:22 08-Las Perlas de Tu Boca (Featuring Axel Tosca Laugart, Roman Lajara, Luis Quintero, Yunior Terry, Javier Porta & Gerardo Contino)
--------------------------------------------------------------------------------

Number of tracks:  12
Official DR value: DR13

Samplerate:        192000 Hz
Channels:          2
Bits per sample:   24
Bitrate:           7263 kbps
Codec:             FLAC
================================================================================




Create a new paste based on this one


Comments: