[ create a new paste ] login | about

Link: http://codepad.org/ZD8WTl6H    [ raw code | fork ]

Plain Text, pasted on Apr 30:
foobar2000 1.4.1 / Dynamic Range Meter 1.1.1
log date: 2019-04-30 09:22:00

--------------------------------------------------------------------------------
Analyzed: ? / Jazz Goes Pop
--------------------------------------------------------------------------------

DR         Peak         RMS     Duration Track
--------------------------------------------------------------------------------
DR11      -0.31 dB   -13.06 dB      5:44 01-Hit The Road Jack
DR7       -2.03 dB   -10.54 dB      6:31 02-My Girl
DR12      -0.29 dB   -14.52 dB      5:44 03-Norwegian Wood
DR11      -0.47 dB   -14.13 dB      4:43 04-What A Difference A Day Makes
DR13      -0.01 dB   -14.79 dB      5:33 05-House Of The Rising Sun
DR10      -1.33 dB   -12.47 dB      5:45 06-Goldfinger
DR12      -0.62 dB   -15.16 dB      3:09 07-Our Day Will Come
DR10      -0.52 dB   -13.64 dB      4:22 08-Shangri-La
DR11      -0.70 dB   -15.72 dB      7:22 09-Light My Fire
DR11      -0.41 dB   -13.85 dB      8:02 10-Eleanor Rigby
--------------------------------------------------------------------------------

Number of tracks:  10
Official DR value: DR11

Samplerate:        88200 Hz
Channels:          2
Bits per sample:   24
Bitrate:           2494 kbps
Codec:             FLAC
================================================================================




Create a new paste based on this one


Comments: