[ create a new paste ] login | about

Link: http://codepad.org/ZEv92scP    [ raw code | fork ]

Plain Text, pasted on Aug 1:
[CUETools log; Date: 8/1/2019 11:46:07 AM; Version: 2.1.5]
CD-Extra data track length 25:04:11.
[CTDB TOCID: rafFx29r5oCsLie5Zcec9dJiSxE-] found.
Track | CTDB Status
  1   | (2681/2712) Accurately ripped
  2   | (2677/2712) Accurately ripped
  3   | (2679/2712) Accurately ripped
  4   | (2679/2712) Accurately ripped
  5   | (2681/2712) Accurately ripped
  6   | (2679/2712) Accurately ripped
  7   | (2676/2712) Accurately ripped
  8   | (2675/2712) Accurately ripped
  9   | (2676/2712) Accurately ripped
 10   | (2662/2712) Accurately ripped, or (13/2712) differs in 3 samples @00:36:29
 11   | (2677/2712) Accurately ripped
 12   | (2677/2712) Accurately ripped
 13   | (2676/2712) Accurately ripped
 14   | (2693/2712) Accurately ripped
[AccurateRip ID: 00130940-00d43224-d60e630f] found.
Track   [  CRC   |   V2   ] Status
 01     [5ea5c896|a432ec13] (200+200/942) Accurately ripped
 02     [71a72345|81e5964c] (200+200/938) Accurately ripped
 03     [26bcd4ef|97eae485] (200+200/941) Accurately ripped
 04     [e10dfaae|f8407c84] (200+200/941) Accurately ripped
 05     [0bffb709|2eb70f01] (200+200/944) Accurately ripped
 06     [ef104b00|41e51f98] (200+200/943) Accurately ripped
 07     [8e34c785|5d7ef3eb] (200+200/943) Accurately ripped
 08     [c2db6002|09afa4a9] (200+200/943) Accurately ripped
 09     [7b46e33f|92efb11d] (200+200/943) Accurately ripped
 10     [233cd74d|17a208b8] (200+200/942) Accurately ripped
 11     [7fb8d233|b491ce80] (200+200/943) Accurately ripped
 12     [064a2a8d|95fc4a98] (200+200/942) Accurately ripped
 13     [5eae8841|96c75b20] (200+200/942) Accurately ripped
 14     [0ce5d6ca|cc31717d] (200+200/945) Accurately ripped
Offsetted by -706:
 01     [9d77d0e6] (003/942) Accurately ripped
 02     [c3a613af] (003/938) Accurately ripped
 03     [33a82a36] (003/941) Accurately ripped
 04     [256a6712] (003/941) Accurately ripped
 05     [c25cdd90] (003/944) Accurately ripped
 06     [bd8b051e] (003/943) Accurately ripped
 07     [394ee03f] (003/943) Accurately ripped
 08     [cc5c3f8a] (003/943) Accurately ripped
 09     [6e5d512f] (003/943) Accurately ripped
 10     [b821141c] (003/942) Accurately ripped
 11     [a9edd759] (003/943) Accurately ripped
 12     [7af6292c] (003/942) Accurately ripped
 13     [1c18e2a5] (003/942) Accurately ripped
 14     [11a5f16e] (003/945) Accurately ripped
Offsetted by -694:
 01     [5de98a21] (004/942) Accurately ripped
 02     [80dc0700] (004/938) Accurately ripped
 03     [8908270a] (004/941) Accurately ripped
 04     [7aaf4779] (004/941) Accurately ripped
 05     [c304b57c] (004/944) Accurately ripped
 06     [8844132e] (004/943) Accurately ripped
 07     [627177be] (004/943) Accurately ripped
 08     [8e85a68c] (004/943) Accurately ripped
 09     [2b595f62] (004/943) Accurately ripped
 10     [95286d4d] (004/942) Accurately ripped
 11     [265e5890] (004/943) Accurately ripped
 12     [e1d5530a] (004/942) Accurately ripped
 13     [321928c3] (004/942) Accurately ripped
 14     [4d0be67f] (004/945) Accurately ripped
Offsetted by -664:
 01     [a1c51853] (002/942) Accurately ripped
 02     [e8c47492] (002/938) Accurately ripped
 03     [1d3678d7] (002/941) Accurately ripped
 04     [dbdebef6] (002/941) Accurately ripped
 05     [61832f78] (002/944) Accurately ripped
 06     [fb1b9f61] (002/943) Accurately ripped
 07     [a2957270] (002/943) Accurately ripped
 08     [53b87ea0] (002/943) Accurately ripped
 09     [d1dbefe5] (002/943) Accurately ripped
 10     [78d0d37f] (002/942) Accurately ripped
 11     [63e8ea90] (002/943) Accurately ripped
 12     [2aa96610] (002/942) Accurately ripped
 13     [a8039035] (002/942) Accurately ripped
 14     [e3e2c90b] (002/945) Accurately ripped
Offsetted by -216:
 01     [cd88847c] (004/942) Accurately ripped
 02     [e9f4af6b] (003/938) Accurately ripped
 03     [85ac6b5b] (004/941) Accurately ripped
 04     [ddf718cf] (004/941) Accurately ripped
 05     [01231499] (004/944) Accurately ripped
 06     [ddcea8d7] (004/943) Accurately ripped
 07     [6b1accfe] (004/943) Accurately ripped
 08     [0fec87c7] (004/943) Accurately ripped
 09     [44964db8] (004/943) Accurately ripped
 10     [e401d345] (004/942) Accurately ripped
 11     [0777e58a] (004/943) Accurately ripped
 12     [3b0890c5] (004/942) Accurately ripped
 13     [2e386b8b] (004/942) Accurately ripped
 14     [dc4c2f7a] (004/945) Accurately ripped
Offsetted by -30:
 01     [afcceedb] (008/942) Accurately ripped
 02     [6981511a] (007/938) Accurately ripped
 03     [de2c9e7d] (007/941) Accurately ripped
 04     [620db19a] (007/941) Accurately ripped
 05     [7e0b6dc4] (008/944) Accurately ripped
 06     [33ca44f9] (007/943) Accurately ripped
 07     [fc0deb68] (008/943) Accurately ripped
 08     [9f0bc966] (008/943) Accurately ripped
 09     [b83079bc] (008/943) Accurately ripped
 10     [c4c34730] (007/942) Accurately ripped
 11     [ee9357ae] (008/943) Accurately ripped
 12     [0a7af6ac] (007/942) Accurately ripped
 13     [53f8481e] (008/942) Accurately ripped
 14     [222cfee4] (009/945) Accurately ripped
Offsetted by 6:
 01     [8f3889c0] (200/942) Accurately ripped
 02     [5c8fc6f8] (200/938) Accurately ripped
 03     [a9244fc2] (200/941) Accurately ripped
 04     [8abc62fc] (200/941) Accurately ripped
 05     [9abdafba] (200/944) Accurately ripped
 06     [c28f7fbc] (200/943) Accurately ripped
 07     [097eb4f8] (200/943) Accurately ripped
 08     [e0319228] (200/943) Accurately ripped
 09     [f885269f] (200/943) Accurately ripped
 10     [d7c630be] (200/942) Accurately ripped
 11     [bf10c724] (200/943) Accurately ripped
 12     [ed3749cb] (200/942) Accurately ripped
 13     [f05ccb57] (200/942) Accurately ripped
 14     [3b58cddc] (200/945) Accurately ripped
Offsetted by -684:
 01     [4e0d10df] (000/942) No match (V2 was not tested)
 02     [aafcedcf] (000/938) No match (V2 was not tested)
 03     [2cdeecef] (000/941) No match (V2 was not tested)
 04     [1592899a] (000/941) No match (V2 was not tested)
 05     [201fb513] (000/944) No match (V2 was not tested)
 06     [5ff45c52] (000/943) No match (V2 was not tested)
 07     [4d083acc] (000/943) No match (V2 was not tested)
 08     [d7d76439] (000/943) No match (V2 was not tested)
 09     [45329ab6] (000/943) No match (V2 was not tested)
 10     [a72ea860] (000/942) No match (V2 was not tested)
 11     [c549c4b1] (000/943) No match (V2 was not tested)
 12     [922c5403] (000/942) No match (V2 was not tested)
 13     [08795787] (000/942) No match (V2 was not tested)
 14     [29993235] (000/945) No match (V2 was not tested)
Offsetted by -667:
 01     [10b677f0] (000/942) No match (V2 was not tested)
 02     [16a9f56a] (000/938) No match (V2 was not tested)
 03     [be4431f8] (000/941) No match (V2 was not tested)
 04     [d6f781c1] (000/941) No match (V2 was not tested)
 05     [ce9babad] (000/944) No match (V2 was not tested)
 06     [56743e85] (000/943) No match (V2 was not tested)
 07     [f0afb210] (000/943) No match (V2 was not tested)
 08     [07b8ade0] (000/943) No match (V2 was not tested)
 09     [43e3ca85] (000/943) No match (V2 was not tested)
 10     [2ad09469] (000/942) No match (V2 was not tested)
 11     [06b08dd2] (000/943) No match (V2 was not tested)
 12     [8a5c5eee] (000/942) No match (V2 was not tested)
 13     [253ede03] (000/942) No match (V2 was not tested)
 14     [d4a3cc0b] (000/945) No match (V2 was not tested)
Offsetted by -156:
 01     [ffeaf8d0] (000/942) No match (V2 was not tested)
 02     [c28d7a34] (000/938) No match (V2 was not tested)
 03     [360aedc6] (000/941) No match (V2 was not tested)
 04     [62aab34a] (000/941) No match (V2 was not tested)
 05     [970a35e2] (000/944) No match (V2 was not tested)
 06     [1d0132d3] (000/943) No match (V2 was not tested)
 07     [3015168d] (000/943) No match (V2 was not tested)
 08     [ad0b3127] (000/943) No match (V2 was not tested)
 09     [66f6a72e] (000/943) No match (V2 was not tested)
 10     [ad8ebd0d] (000/942) No match (V2 was not tested)
 11     [4ee00837] (000/943) No match (V2 was not tested)
 12     [782a4db6] (000/942) No match (V2 was not tested)
 13     [b0347c43] (000/942) No match (V2 was not tested)
 14     [00ad49d7] (000/945) No match (V2 was not tested)
Offsetted by -132:
 01     [25f804dd] (000/942) No match (V2 was not tested)
 02     [8be6468f] (000/938) No match (V2 was not tested)
 03     [15ca48c7] (000/941) No match (V2 was not tested)
 04     [425d7b45] (000/941) No match (V2 was not tested)
 05     [78ed3d74] (000/944) No match (V2 was not tested)
 06     [8b0f3569] (000/943) No match (V2 was not tested)
 07     [29e084cd] (000/943) No match (V2 was not tested)
 08     [590e1674] (000/943) No match (V2 was not tested)
 09     [af6c74d9] (000/943) No match (V2 was not tested)
 10     [cd6b3e1a] (000/942) No match (V2 was not tested)
 11     [e463c912] (000/943) No match (V2 was not tested)
 12     [0e9a48cf] (000/942) No match (V2 was not tested)
 13     [933da00e] (000/942) No match (V2 was not tested)
 14     [d5aa48d3] (000/945) No match (V2 was not tested)
Offsetted by -126:
 01     [3255cd12] (000/942) No match (V2 was not tested)
 02     [3c6d98c0] (000/938) No match (V2 was not tested)
 03     [95f24f40] (000/941) No match (V2 was not tested)
 04     [4bede7a0] (000/941) No match (V2 was not tested)
 05     [3eee739e] (000/944) No match (V2 was not tested)
 06     [9730f05e] (000/943) No match (V2 was not tested)
 07     [62fb9a26] (000/943) No match (V2 was not tested)
 08     [89611df8] (000/943) No match (V2 was not tested)
 09     [ba9d854f] (000/943) No match (V2 was not tested)
 10     [c029fe26] (000/942) No match (V2 was not tested)
 11     [afb5dd29] (000/943) No match (V2 was not tested)
 12     [beea0e10] (000/942) No match (V2 was not tested)
 13     [ddc015df] (000/942) No match (V2 was not tested)
 14     [0a0e4792] (000/945) No match (V2 was not tested)
Offsetted by -78:
 01     [5e2f546d] (000/942) No match (V2 was not tested)
 02     [5aead95a] (000/938) No match (V2 was not tested)
 03     [1a534310] (000/941) No match (V2 was not tested)
 04     [f975473e] (000/941) No match (V2 was not tested)
 05     [141848f5] (000/944) No match (V2 was not tested)
 06     [b726b4f8] (000/943) No match (V2 was not tested)
 07     [79f09424] (000/943) No match (V2 was not tested)
 08     [a40bfc6a] (000/943) No match (V2 was not tested)
 09     [b7b14a31] (000/943) No match (V2 was not tested)
 10     [5f521918] (000/942) No match (V2 was not tested)
 11     [d335321f] (000/943) No match (V2 was not tested)
 12     [ba8e4cd5] (000/942) No match (V2 was not tested)
 13     [6294373a] (000/942) No match (V2 was not tested)
 14     [9f312eec] (000/945) No match (V2 was not tested)
Offsetted by -6:
 01     [a97939b7] (000/942) No match (V2 was not tested)
 02     [b6f42e07] (000/938) No match (V2 was not tested)
 03     [b52ed02c] (000/941) No match (V2 was not tested)
 04     [cbcd92b5] (000/941) No match (V2 was not tested)
 05     [7aed816b] (000/944) No match (V2 was not tested)
 06     [ea3e164a] (000/943) No match (V2 was not tested)
 07     [c1f95d87] (000/943) No match (V2 was not tested)
 08     [47b56228] (000/943) No match (V2 was not tested)
 09     [0aa0b75d] (000/943) No match (V2 was not tested)
 10     [b54de3c2] (000/942) No match (V2 was not tested)
 11     [8f647a62] (000/943) No match (V2 was not tested)
 12     [8698c9de] (000/942) No match (V2 was not tested)
 13     [583afba8] (000/942) No match (V2 was not tested)
 14     [de34df61] (000/945) No match (V2 was not tested)
Offsetted by 12:
 01     [33a757ca] (000/942) No match
 02     [366af4c7] (000/938) No match
 03     [68a816c0] (000/941) No match
 04     [31606670] (000/941) No match
 05     [282da4d6] (002/944) Accurately ripped
 06     [5b9b38c6] (002/943) Accurately ripped
 07     [6b0d6096] (002/943) Accurately ripped
 08     [92d801e1] (002/943) Accurately ripped
 09     [77e30266] (002/943) Accurately ripped
 10     [180fe55b] (002/942) Accurately ripped
 11     [11a9d08a] (002/943) Accurately ripped
 12     [9b8d01a3] (002/942) Accurately ripped
 13     [e7fb181d] (002/942) Accurately ripped
 14     [69c5c4b0] (002/945) Accurately ripped
Offsetted by 24:
 01     [740c0109] (000/942) No match (V2 was not tested)
 02     [66651649] (000/938) No match (V2 was not tested)
 03     [0ae44d50] (000/941) No match (V2 was not tested)
 04     [2b8e0689] (000/941) No match (V2 was not tested)
 05     [49738f1a] (000/944) No match (V2 was not tested)
 06     [3ac14794] (000/943) No match (V2 was not tested)
 07     [80264d02] (000/943) No match (V2 was not tested)
 08     [57c1d23a] (000/943) No match (V2 was not tested)
 09     [6f4b0a09] (000/943) No match (V2 was not tested)
 10     [dbece07e] (000/942) No match (V2 was not tested)
 11     [8d2784ac] (000/943) No match (V2 was not tested)
 12     [22d951fb] (000/942) No match (V2 was not tested)
 13     [8cc8ead4] (000/942) No match (V2 was not tested)
 14     [c5edb158] (000/945) No match (V2 was not tested)

Track Peak [ CRC32  ] [W/O NULL] [  LOG   ]
 --   96.7 [EF4B7B0A] [7903265B]   CRC32   
 01   95.8 [24F8EB7F] [B472C44C]           
 02   95.8 [72262CA5] [28C6EFD5]           
 03   96.1 [2C7433B3] [0F59B1F3]           
 04   96.5 [73A861B4] [9730DBE8]           
 05   95.8 [775C3849] [4F04172C]           
 06   95.7 [22DD259A] [5FF69B0D]           
 07   96.5 [FF933E3C] [FFF48B3C]           
 08   95.9 [CC260540] [99C80635]           
 09   95.8 [4D6E8A08] [317903EB]           
 10   95.7 [B63C9673] [18755F1C]           
 11   95.8 [A1C44476] [FE227EE5]           
 12   96.0 [9230DF2D] [8BF686D2]           
 13   96.7 [BBABB823] [895601B9]           
 14   96.6 [B244B835] [153FD23F]           



Create a new paste based on this one


Comments: