[ create a new paste ] login | about

Link: http://codepad.org/ZEzFb7cj    [ raw code | fork ]

Plain Text, pasted on Oct 31:
foobar2000 1.6 / Dynamic Range Meter 1.1.1
log date: 2020-10-31 01:22:30

--------------------------------------------------------------------------------
Analyzed: Red Nichols / Red Nichols And His Five Pennies At Marineland
--------------------------------------------------------------------------------

DR         Peak         RMS     Duration Track
--------------------------------------------------------------------------------
DR14      -0.05 dB   -18.84 dB      3:06 01-Entry Of The Gladiator
DR15      -1.09 dB   -20.22 dB      4:27 02-Singin' The Blues
DR14      -0.64 dB   -18.66 dB      3:08 03-(Lonesome Lovesick) Got To Have My Daddy Blues
DR14      -0.61 dB   -18.58 dB      3:18 04-St. Louis Blues
DR14      -1.68 dB   -18.12 dB      3:38 05-Fidgety Feet
DR12      -5.14 dB   -26.29 dB      0:23 06-Silver Threads Among The Gold
DR15      -0.36 dB   -19.59 dB      7:50 07-Medley
DR14      -1.17 dB   -18.18 dB      2:10 08-Lassus Trombone
DR14      -2.33 dB   -21.38 dB      2:56 09-My Inspiration
DR15      -0.05 dB   -19.74 dB      4:05 10-Medley
--------------------------------------------------------------------------------

Number of tracks:  10
Official DR value: DR14

Samplerate:        96000 Hz
Channels:          2
Bits per sample:   24
Bitrate:           3000 kbps
Codec:             FLAC
================================================================================




Create a new paste based on this one


Comments: