[ create a new paste ] login | about

Link: http://codepad.org/ZLzFJWgS    [ raw code | fork ]

Plain Text, pasted on Apr 24:
foobar2000 1.3.17 / Dynamic Range Meter 1.1.1
log date: 2018-04-24 09:11:56

--------------------------------------------------------------------------------
Analyzed: JOHNNY WINTER / THE BEST OF JOHNNY WINTER
--------------------------------------------------------------------------------

DR         Peak         RMS     Duration Track
--------------------------------------------------------------------------------
DR10      -3.50 dB   -15.86 dB      3:30 01-Rock And Roll, Hoochie Koo
DR12      -3.55 dB   -17.39 dB      4:30 02-I'm Yours And I'm Hers
DR11      -4.48 dB   -16.79 dB      2:45 03-Johnny B. Goode
DR10      -4.94 dB   -18.79 dB      4:44 04-I'll Drown In My Tears
DR15      -6.58 dB   -23.35 dB      5:03 05-Come On In My Kitchen
DR13      -3.80 dB   -19.41 dB      3:26 06-Rollin' And Tumblin'
DR10      -4.29 dB   -16.21 dB      5:07 07-Highway 61 Revisited
DR11      -4.30 dB   -17.06 dB      3:28 08-Hustled Down In Texas
DR12      -3.74 dB   -18.25 dB      2:54 09-Mother-In-Law Blues
DR11      -7.68 dB   -21.38 dB      2:43 10-Dallas
DR12      -3.62 dB   -17.88 dB      3:38 11-Miss Ann
DR11      -3.90 dB   -17.99 dB     11:52 12-It's My Own Fault (Live)
DR11      -4.66 dB   -18.32 dB      8:24 13-Mean Town Blues (Live)
DR12      -3.76 dB   -17.62 dB      3:42 14-Still Alive And Well
DR12      -3.51 dB   -17.41 dB      5:14 15-Be Careful With A Fool
DR11      -4.06 dB   -16.45 dB      5:30 16-Memory Pain
--------------------------------------------------------------------------------

Number of tracks:  16
Official DR value: DR11

Samplerate:        2822400 Hz / PCM Samplerate: 176400 Hz
Channels:          2
Bits per sample:   1
Bitrate:           5645 kbps
Codec:             DSD64
================================================================================




Create a new paste based on this one


Comments: