[ create a new paste ] login | about

Link: http://codepad.org/ZMu8BHN9    [ raw code | fork ]

Plain Text, pasted on Jun 15:
foobar2000 1.3.15 / Dynamic Range Meter 1.1.1
log date: 2017-06-15 14:02:09

--------------------------------------------------------------------------------
Analyzed: Renaissance / Scheherazade And Other Stories [2014 Audio Fidelity SACD AFZ 183]
--------------------------------------------------------------------------------

DR         Peak         RMS     Duration Track
--------------------------------------------------------------------------------
DR13      -0.35 dB   -17.41 dB     10:55 01-Trip To The Fair
DR11      -0.33 dB   -14.70 dB      3:10 02-The Vultures Fly High
DR12       0.00 dB   -17.08 dB      7:09 03-Ocean Gypsy
DR12      -0.39 dB   -17.42 dB     24:57 04-Song Of Scheherazade
--------------------------------------------------------------------------------

Number of tracks:  4
Official DR value: DR12

Samplerate:        44100 Hz
Channels:          2
Bits per sample:   16
Bitrate:           758 kbps
Codec:             FLAC
================================================================================




Create a new paste based on this one


Comments: