[ create a new paste ] login | about

Link: http://codepad.org/ZO6Iln6E    [ raw code | fork ]

Plain Text, pasted on Mar 3:
foobar2000 1.5 / Dynamic Range Meter 1.1.1
log date: 2020-03-04 00:40:38

--------------------------------------------------------------------------------
Analyzed: The Mystic Moods Orchestra / Emotions
--------------------------------------------------------------------------------

DR         Peak         RMS     Duration Track
--------------------------------------------------------------------------------
DR12      -0.05 dB   -17.63 dB      5:27 01-Medley: Sound Of Silence / Scarborough Fair / Canticle
DR11      -1.48 dB   -15.37 dB      3:05 02-Do You Know The Way To San Jose
DR10      -3.34 dB   -18.50 dB      3:49 03-Eleanor Rigby
DR12      -0.16 dB   -17.28 dB      3:08 04-Sunny Goodge Street
DR11      -0.05 dB   -14.16 dB      2:30 05-Trains And Boats And Planes
DR10      -2.70 dB   -16.69 dB      2:39 06-Cloudy
DR12      -0.86 dB   -17.52 dB      3:42 07-Soldier In The Rain
DR12      -0.06 dB   -16.87 dB      4:07 08-Maman
DR12      -0.05 dB   -15.90 dB      2:55 09-Homeward Bound
DR13      -1.61 dB   -19.60 dB      4:02 10-Early Morning Rain
DR11      -0.54 dB   -15.33 dB      3:14 11-Listen To The Warm
--------------------------------------------------------------------------------

Number of tracks:  11
Official DR value: DR11

Samplerate:        96000 Hz
Channels:          2
Bits per sample:   24
Bitrate:           3081 kbps
Codec:             FLAC
================================================================================




Create a new paste based on this one


Comments: