[ create a new paste ] login | about

Link: http://codepad.org/ZRGWj5dh    [ raw code | fork ]

Plain Text, pasted on Jul 29:
Exact Audio Copy V1.3 from 2. September 2016

EAC extraction logfile from 20. July 2019, 18:12

Tangerine Dream / Force Majeure

Used drive  : PLEXTOR BD-R  PX-B950SA   Adapter: 1  ID: 1

Read mode               : Secure
Utilize accurate stream : Yes
Defeat audio cache      : Yes
Make use of C2 pointers : No

Read offset correction                      : 6
Overread into Lead-In and Lead-Out          : No
Fill up missing offset samples with silence : Yes
Delete leading and trailing silent blocks   : No
Null samples used in CRC calculations       : Yes
Used interface                              : Native Win32 interface for Win NT & 2000

Used output format : Internal WAV Routines
Sample format      : 44.100 Hz; 16 Bit; Stereo


TOC of the extracted CD

     Track |   Start  |  Length  | Start sector | End sector 
    ---------------------------------------------------------
        1  |  0:00.00 | 18:21.72 |         0    |    82646   
        2  | 18:21.72 |  7:28.43 |     82647    |   116289   
        3  | 25:50.40 | 14:35.41 |    116290    |   181955   
        4  | 40:26.06 |  4:47.53 |    181956    |   203533   


Range status and errors

Selected range

     Filename C:\Tangerine Dream\2019 In Search Of Hades (18-Disc Box Set Universal Music)\CD16 1979 Force Majeure\Tangerine Dream - Force Majeure.wav

     Peak level 98.6 %
     Extraction speed 4.3 X
     Range quality 99.9 %
     Test CRC 82A37D4A
     Copy CRC 82A37D4A
     Copy OK

No errors occurred

 
AccurateRip summary
 
Track  1  not present in database
Track  2  not present in database
Track  3  not present in database
Track  4  not present in database
 
None of the tracks are present in the AccurateRip database

End of status report

---- CUETools DB Plugin V2.1.6

[CTDB TOCID: qz111Gfqr4fWUekeNJlN0lsxZWU-] found
Submit result: qz111Gfqr4fWUekeNJlN0lsxZWU- has been confirmed
Track | CTDB Status
  1   | (74/75) Accurately ripped
  2   | (75/75) Accurately ripped
  3   | (75/75) Accurately ripped
  4   | (75/75) Accurately ripped


==== Log checksum E49F0F4593B67CAE74EFBBD86A0AA91AF8A7AABCD8537CC23E5A2827A4D635D7 ====



Create a new paste based on this one


Comments: