[ create a new paste ] login | about

Link: http://codepad.org/ZSVRAMki    [ raw code | fork ]

Plain Text, pasted on May 30:
foobar2000 1.4.4 / Dynamic Range Meter 1.1.1
log date: 2019-05-30 15:43:04

--------------------------------------------------------------------------------
Analyzed: B.B. King / Reflections
--------------------------------------------------------------------------------

DR         Peak         RMS     Duration Track
--------------------------------------------------------------------------------
DR9       -0.26 dB   -10.82 dB      3:23 01-Exactly Like You
DR7       -0.33 dB    -9.17 dB      3:22 02-On My Word Of Honor
DR7       -0.25 dB    -9.97 dB      2:49 03-I Want A Little Girl
DR8       -0.60 dB   -10.78 dB      3:32 04-I'll String Along With You
DR7       -0.43 dB    -9.34 dB      3:03 05-I Need You So
DR7       -0.14 dB    -9.45 dB      2:59 06-A Mother's Love
DR8       -0.97 dB   -11.16 dB      3:31 07-(I Love You) For Sentimental Reasons
DR8       -0.52 dB   -10.15 dB      4:27 08-Neighborhood Affair
DR8       -0.14 dB   -10.05 dB      3:36 09-Tomorrow Night
DR7       -0.43 dB   -10.81 dB      3:30 10-There I've Said It Again
DR7       -0.16 dB   -10.04 dB      3:57 11-Always On My Mind
DR8       -0.01 dB   -10.55 dB      4:29 12-Cross My Heart
DR7       -0.76 dB   -11.17 dB      3:57 13-What A Wonderful World
--------------------------------------------------------------------------------

Number of tracks:  13
Official DR value: DR7

Samplerate:        88200 Hz
Channels:          2
Bits per sample:   24
Bitrate:           2908 kbps
Codec:             FLAC
================================================================================




Create a new paste based on this one


Comments: