[ create a new paste ] login | about

Link: http://codepad.org/ZVcEfl8Q    [ raw code | fork ]

Plain Text, pasted on Jun 13:
Exact Audio Copy V1.0 beta 2 from 29. April 2011

EAC extraction logfile from 3. July 2011, 18:54

Jackson 5 / Dacing Machine & Moving Violation

Used drive  : HL-DT-STDVDRAM GSA-H60N   Adapter: 2  ID: 0

Read mode               : Secure
Utilize accurate stream : Yes
Defeat audio cache      : Yes
Make use of C2 pointers : No

Read offset correction                      : 667
Overread into Lead-In and Lead-Out          : No
Fill up missing offset samples with silence : Yes
Delete leading and trailing silent blocks   : No
Null samples used in CRC calculations       : Yes
Used interface                              : Native Win32 interface for Win NT & 2000

Used output format : Internal WAV Routines
Sample format      : 44.100 Hz; 16 Bit; Stereo


TOC of the extracted CD

     Track |   Start  |  Length  | Start sector | End sector 
    ---------------------------------------------------------
        1  |  0:00.00 |  7:29.37 |         0    |    33711   
        2  |  7:29.37 |  2:58.73 |     33712    |    47134   
        3  | 10:28.35 |  2:39.37 |     47135    |    59096   
        4  | 13:07.72 |  2:43.68 |     59097    |    71389   
        5  | 15:51.65 |  2:35.10 |     71390    |    83024   
        6  | 18:27.00 |  4:25.42 |     83025    |   102941   
        7  | 22:52.42 |  3:28.15 |    102942    |   118556   
        8  | 26:20.57 |  3:07.73 |    118557    |   132654   
        9  | 29:28.55 |  3:08.67 |    132655    |   146821   
       10  | 32:37.47 |  6:24.00 |    146822    |   175621   
       11  | 39:01.47 |  3:37.20 |    175622    |   191916   
       12  | 42:38.67 |  3:28.63 |    191917    |   207579   
       13  | 46:07.55 |  4:40.02 |    207580    |   228581   
       14  | 50:47.57 |  4:07.48 |    228582    |   247154   
       15  | 54:55.30 |  3:18.00 |    247155    |   262004   
       16  | 58:13.30 |  3:38.42 |    262005    |   278396   
       17  | 61:51.72 |  2:33.48 |    278397    |   289919   
       18  | 64:25.45 |  4:13.15 |    289920    |   308909   
       19  | 68:38.60 |  3:05.27 |    308910    |   322811   
       20  | 71:44.12 |  6:19.60 |    322812    |   351296   


Range status and errors

Selected range

     Filename C:\Documents and Settings\2011 Dear Michael 12 SHM-CD\Disc 8 Dancing Machine - Moving Violation\Dacing Machine - Moving Violation.wav

     Peak level 100.0 %
     Extraction speed 6.2 X
     Range quality 100.0 %
     Test CRC C1C37D1C
     Copy CRC C1C37D1C
     Copy OK

No errors occurred

 
AccurateRip summary
 
Track  1  cannot be verified as accurate (confidence 4)  [49538CC6], AccurateRip returned [EF69CB2F]  (AR v2)
Track  2  cannot be verified as accurate (confidence 4)  [82D9FFE6], AccurateRip returned [E04B5DCC]  (AR v2)
Track  3  cannot be verified as accurate (confidence 4)  [ED21EF00], AccurateRip returned [665C5346]  (AR v2)
Track  4  cannot be verified as accurate (confidence 4)  [2A2AAF36], AccurateRip returned [F3118656]  (AR v2)
Track  5  cannot be verified as accurate (confidence 4)  [C74727A7], AccurateRip returned [F96656D4]  (AR v2)
Track  6  cannot be verified as accurate (confidence 4)  [E639C4C2], AccurateRip returned [6B9BF171]  (AR v2)
Track  7  cannot be verified as accurate (confidence 4)  [5F832628], AccurateRip returned [292EC3C6]  (AR v2)
Track  8  cannot be verified as accurate (confidence 4)  [C4515D87], AccurateRip returned [71ACEE1D]  (AR v2)
Track  9  cannot be verified as accurate (confidence 4)  [4D3D77F7], AccurateRip returned [F3DAC078]  (AR v2)
Track 10  cannot be verified as accurate (confidence 4)  [223E6930], AccurateRip returned [C98D06DC]  (AR v2)
Track 11  cannot be verified as accurate (confidence 4)  [C9913ECF], AccurateRip returned [DD846DB6]  (AR v2)
Track 12  cannot be verified as accurate (confidence 4)  [6F973A0A], AccurateRip returned [12E8B7EA]  (AR v2)
Track 13  cannot be verified as accurate (confidence 4)  [5F45BCE2], AccurateRip returned [94816355]  (AR v2)
Track 14  cannot be verified as accurate (confidence 4)  [99879F81], AccurateRip returned [84D100C2]  (AR v2)
Track 15  cannot be verified as accurate (confidence 4)  [36D4C106], AccurateRip returned [04E23AAB]  (AR v2)
Track 16  cannot be verified as accurate (confidence 4)  [E3D71E67], AccurateRip returned [A60C1BE9]  (AR v2)
Track 17  cannot be verified as accurate (confidence 4)  [CF0D079D], AccurateRip returned [EE1F886C]  (AR v2)
Track 18  cannot be verified as accurate (confidence 4)  [A448E833], AccurateRip returned [A62CAF78]  (AR v2)
Track 19  cannot be verified as accurate (confidence 4)  [E6B53467], AccurateRip returned [2B8A2188]  (AR v2)
Track 20  cannot be verified as accurate (confidence 4)  [64834020], AccurateRip returned [22FE5E0B]  (AR v2)
 
No tracks could be verified as accurate
You may have a different pressing from the one(s) in the database

End of status report


==== Log checksum 643C16F3FE2AA1AEAB4E25D00D6520CCE6720455BCB6413C326BC44B6E5B1F53 ====



Create a new paste based on this one


Comments: