[ create a new paste ] login | about

Link: http://codepad.org/ZX9SBU5k    [ raw code | fork ]

Plain Text, pasted on Dec 5:
[CUETools log; Date: 12/4/2016 3:38:52 PM; Version: 2.1.5]
[CTDB TOCID: SRiSQe.WKogOpV82cX_ok2Px86U-] found.
Track | CTDB Status
  1   | (73/73) Accurately ripped
  2   | (73/73) Accurately ripped
  3   | (73/73) Accurately ripped
  4   | (73/73) Accurately ripped
  5   | (73/73) Accurately ripped
  6   | (72/73) Accurately ripped
  7   | (71/73) Accurately ripped
  8   | (69/73) Accurately ripped
[AccurateRip ID: 000fc0c2-006a8ccb-6d0ce408] found.
Track   [  CRC   |   V2   ] Status
 01     [e50cf2f6|eea8e980] (000+005/102) Accurately ripped
 02     [60be59b5|f2aa45c1] (000+005/102) Accurately ripped
 03     [9b64bde3|6c4e0e50] (000+005/102) Accurately ripped
 04     [1a7dbf4e|5f630d9b] (000+005/102) Accurately ripped
 05     [1977193a|d34ca35e] (000+005/102) Accurately ripped
 06     [cad7274b|bc56d2db] (000+005/102) Accurately ripped
 07     [9c11c225|b48bdd48] (000+005/104) Accurately ripped
 08     [8e107231|abfbec56] (000+005/100) Accurately ripped
Offsetted by -670:
 01     [0bdef482] (027/102) Accurately ripped
 02     [b49a8302] (027/102) Accurately ripped
 03     [90b1a98f] (027/102) Accurately ripped
 04     [c5adcf6f] (027/102) Accurately ripped
 05     [23e42df0] (027/102) Accurately ripped
 06     [e2c8ed0b] (027/102) Accurately ripped
 07     [56735500] (028/104) Accurately ripped
 08     [2100b7c2] (027/100) Accurately ripped
Offsetted by -30:
 01     [245411af] (019/102) Accurately ripped
 02     [0042e264] (019/102) Accurately ripped
 03     [fa112c60] (019/102) Accurately ripped
 04     [0473e935] (019/102) Accurately ripped
 05     [1b473b1c] (019/102) Accurately ripped
 06     [12f450b4] (019/102) Accurately ripped
 07     [30150d55] (020/104) Accurately ripped
 08     [bd5ffc2a] (019/100) Accurately ripped
Offsetted by -24:
 01     [a2abf8fb] (000/102) No match (V2 was not tested)
 02     [4e63599e] (000/102) No match (V2 was not tested)
 03     [0b29fec9] (000/102) No match (V2 was not tested)
 04     [17b3d63c] (000/102) No match (V2 was not tested)
 05     [269ee32a] (000/102) No match (V2 was not tested)
 06     [c7299995] (000/102) No match (V2 was not tested)
 07     [af4fe3fc] (000/104) No match (V2 was not tested)
 08     [1a3e8c2e] (000/100) No match (V2 was not tested)

Track Peak [ CRC32  ] [W/O NULL] [  LOG   ]
 --   99.9 [0E1C085C] [5B31EC2C]   CRC32   
 01   99.9 [E33761B0] [338460BB]           
 02   99.9 [EE34DFB8] [508B1A5A]           
 03   99.9 [D9044A30] [6886D7A2]           
 04   99.9 [F8E319E9] [EF2FF293]           
 05   99.9 [75DEFB8A] [03026CDF]           
 06   99.9 [76585701] [6BEF31BB]           
 07   99.5 [88647243] [2892743D]           
 08   99.9 [15384161] [758159F1]           



Create a new paste based on this one


Comments: