[ create a new paste ] login | about

Link: http://codepad.org/ZZRVUdup    [ raw code | fork ]

Plain Text, pasted on Feb 16:
Exact Audio Copy V1.3 from 2. September 2016

EAC extraction logfile from 16. November 2017, 17:33

Cilla Black / Her All-Time Greatest Hits

Used drive  : ATAPI   iHAS122   C   Adapter: 1  ID: 0

Read mode               : Secure
Utilize accurate stream : Yes
Defeat audio cache      : Yes
Make use of C2 pointers : No

Read offset correction                      : 6
Overread into Lead-In and Lead-Out          : No
Fill up missing offset samples with silence : Yes
Delete leading and trailing silent blocks   : No
Null samples used in CRC calculations       : Yes
Used interface                              : Native Win32 interface for Win NT & 2000

Used output format : Internal WAV Routines
Sample format      : 44.100 Hz; 16 Bit; Stereo


TOC of the extracted CD

     Track |   Start  |  Length  | Start sector | End sector 
    ---------------------------------------------------------
        1  |  0:00.00 |  2:49.66 |         0    |    12740   
        2  |  2:49.66 |  2:58.14 |     12741    |    26104   
        3  |  5:48.05 |  2:33.69 |     26105    |    37648   
        4  |  8:21.74 |  2:22.56 |     37649    |    48354   
        5  | 10:44.55 |  2:38.08 |     48355    |    60212   
        6  | 13:22.63 |  3:08.69 |     60213    |    74381   
        7  | 16:31.57 |  2:47.42 |     74382    |    86948   
        8  | 19:19.24 |  2:21.52 |     86949    |    97575   
        9  | 21:41.01 |  2:10.47 |     97576    |   107372   
       10  | 23:51.48 |  4:09.64 |    107373    |   126111   
       11  | 28:01.37 |  2:49.50 |    126112    |   138836   
       12  | 30:51.12 |  2:29.06 |    138837    |   150017   
       13  | 33:20.18 |  2:49.59 |    150018    |   162751   
       14  | 36:10.02 |  2:26.67 |    162752    |   173768   


Range status and errors

Selected range

     Filename C:\Desktop\Cilla Black - Her All-Time Greatest Hits.wav

     Peak level 98.8 %
     Extraction speed 7.7 X
     Range quality 100.0 %
     Test CRC F3397A80
     Copy CRC F3397A80
     Copy OK

No errors occurred

 
AccurateRip summary
 
Track  1  not present in database
Track  2  not present in database
Track  3  not present in database
Track  4  not present in database
Track  5  not present in database
Track  6  not present in database
Track  7  not present in database
Track  8  not present in database
Track  9  not present in database
Track 10  not present in database
Track 11  not present in database
Track 12  not present in database
Track 13  not present in database
Track 14  not present in database
 
None of the tracks are present in the AccurateRip database

End of status report

---- CUETools DB Plugin V2.1.6

[CTDB TOCID: Qs7E.kGBFTHIYIzG6lW_1rOdNFo-] found
Submit result: Qs7E.kGBFTHIYIzG6lW_1rOdNFo- has been confirmed
Track | CTDB Status
  1   | (1/1) Accurately ripped
  2   | (1/1) Accurately ripped
  3   | (1/1) Accurately ripped
  4   | (1/1) Accurately ripped
  5   | (1/1) Accurately ripped
  6   | (1/1) Accurately ripped
  7   | (1/1) Accurately ripped
  8   | (1/1) Accurately ripped
  9   | (1/1) Accurately ripped
 10   | (1/1) Accurately ripped
 11   | (1/1) Accurately ripped
 12   | (1/1) Accurately ripped
 13   | (1/1) Accurately ripped
 14   | (1/1) Accurately ripped


==== Log checksum 828BE1061CCCC9D6F59C8CD65DFF194D0B8DDB07AF1F535D1921F21901ED9FFD ====



Create a new paste based on this one


Comments: