[ create a new paste ] login | about

Link: http://codepad.org/ZceDk3QN    [ raw code | fork ]

Plain Text, pasted on Dec 13:
Exact Audio Copy V1.0 beta 3 from 29. August 2011

EAC extraction logfile from 17. July 2014, 16:17

The Beatles / The Silver Beatles

Used drive  : ASUS    CRW-5224A   Adapter: 2  ID: 0

Read mode               : Secure
Utilize accurate stream : Yes
Defeat audio cache      : Yes
Make use of C2 pointers : No

Read offset correction                      : 6
Overread into Lead-In and Lead-Out          : No
Fill up missing offset samples with silence : Yes
Delete leading and trailing silent blocks   : No
Null samples used in CRC calculations       : Yes
Used interface                              : Native Win32 interface for Win NT & 2000

Used output format : Internal WAV Routines
Sample format      : 44.100 Hz; 16 Bit; Stereo


TOC of the extracted CD

     Track |   Start  |  Length  | Start sector | End sector 
    ---------------------------------------------------------
        1  |  0:00.00 |  2:18.20 |         0    |    10369   
        2  |  2:18.20 |  1:57.17 |     10370    |    19161   
        3  |  4:15.37 |  1:51.33 |     19162    |    27519   
        4  |  6:06.70 |  2:34.10 |     27520    |    39079   
        5  |  8:41.05 |  2:56.30 |     39080    |    52309   
        6  | 11:37.35 |  1:38.07 |     52310    |    59666   
        7  | 13:15.42 |  2:28.53 |     59667    |    70819   
        8  | 15:44.20 |  2:19.05 |     70820    |    81249   
        9  | 18:03.25 |  2:14.55 |     81250    |    91354   
       10  | 20:18.05 |  1:57.42 |     91355    |   100171   
       11  | 22:15.47 |  2:20.40 |    100172    |   110711   
       12  | 24:36.12 |  2:53.68 |    110712    |   123754   


Range status and errors

Selected range

     Filename C:\Music\Beatles Decca\1987 - The Silver Beatles\The Beatles - The Silver Beatles.wav

     Peak level 99.9 %
     Extraction speed 7.9 X
     Range quality 99.9 %
     Copy CRC D5842C9F
     Copy OK

No errors occurred

End of status report



Create a new paste based on this one


Comments: