[ create a new paste ] login | about

Link: http://codepad.org/ZgCxOTQQ    [ raw code | fork ]

Plain Text, pasted on Mar 10:
Exact Audio Copy V0.99 prebeta 5 from 4. May 2009

EAC extraction logfile from 5. April 2011, 9:26

Lou Reed / Transformer

Used drive  : HL-DT-STDVD-RAM GH22NS30   Adapter: 2  ID: 0

Read mode               : Secure
Utilize accurate stream : Yes
Defeat audio cache      : Yes
Make use of C2 pointers : No

Read offset correction                      : 102
Overread into Lead-In and Lead-Out          : No
Fill up missing offset samples with silence : Yes
Delete leading and trailing silent blocks   : No
Null samples used in CRC calculations       : Yes
Used interface                              : Native Win32 interface for Win NT & 2000

Used output format              : User Defined Encoder
Selected bitrate                : 768 kBit/s
Quality                         : High
Add ID3 tag                     : No
Command line compressor         : I:\Mis documentos\Mi música\iTunes\Exact Audio Copy\FLAC\FLAC.EXE
Additional command line options : -6 -V -T "ARTIST=%a" -T "TITLE=%t" -T "ALBUM=%g" -T "DATE=%y" -T "TRACKNUMBER=%n" -T "GENRE=%m" -T "COMMENT=%e" %s -o %d


TOC of the extracted CD

     Track |   Start  |  Length  | Start sector | End sector 
    ---------------------------------------------------------
        1  |  0:00.32 |  2:58.65 |        32    |    13446   
        2  |  2:59.22 |  3:20.73 |     13447    |    28519   
        3  |  6:20.20 |  3:46.30 |     28520    |    45499   
        4  | 10:06.50 |  3:35.30 |     45500    |    61654   
        5  | 13:42.05 |  4:14.47 |     61655    |    80751   
        6  | 17:56.52 |  3:01.18 |     80752    |    94344   
        7  | 20:57.70 |  3:42.37 |     94345    |   111031   
        8  | 24:40.32 |  3:19.55 |    111032    |   126011   
        9  | 28:00.12 |  1:33.68 |    126012    |   133054   
       10  | 29:34.05 |  3:09.57 |    133055    |   147286   
       11  | 32:43.62 |  4:23.18 |    147287    |   167029   


Range status and errors

Selected range

     Filename I:\Mis documentos\Mi música\iTunes\Lou Reed - Transformer.wav

     Peak level 80.7 %
     Range quality 100.0 %
     Test CRC 015C42AD
     Copy CRC 015C42AD
     Copy OK

No errors occurred

 
AccurateRip summary
 
Track  1  accurately ripped (confidence 118)  [8703120C]
Track  2  accurately ripped (confidence 120)  [B305A80A]
Track  3  accurately ripped (confidence 119)  [A1B66541]
Track  4  accurately ripped (confidence 120)  [02938145]
Track  5  accurately ripped (confidence 116)  [2D8BC162]
Track  6  accurately ripped (confidence 120)  [8DD36600]
Track  7  accurately ripped (confidence 117)  [E3C92300]
Track  8  accurately ripped (confidence 119)  [C7249FEA]
Track  9  accurately ripped (confidence 119)  [B8DFEF1B]
Track 10  accurately ripped (confidence 119)  [3866E7E7]
Track 11  accurately ripped (confidence 112)  [F24A9496]
 
All tracks accurately ripped

End of status report



Create a new paste based on this one


Comments: