[ create a new paste ] login | about

Link: http://codepad.org/ZgKl0lft    [ raw code | fork ]

Plain Text, pasted on Nov 21:
foobar2000 1.3 / Dynamic Range Meter 1.1.1
log date: 2014-04-11 15:26:39

--------------------------------------------------------------------------------
Analyzed: Sam Cooke / Keep Movin' On (Hybrid SACD)
--------------------------------------------------------------------------------

DR         Peak         RMS     Duration Track
--------------------------------------------------------------------------------
DR12      -3.18 dB   -17.03 dB      2:31 01-Ain't That Good News
DR13      -1.69 dB   -16.05 dB      2:36 02-Rome (Wasn't Built In A Day)
DR12      -1.48 dB   -15.74 dB      2:43 03-Meet Me At Mary's Place
DR11      -2.82 dB   -16.68 dB      2:50 04-Basin Street Blues
DR12      -0.93 dB   -16.03 dB      2:30 05-He's A Cousin Of Mine
DR12      -2.16 dB   -16.19 dB      3:13 06-Tennessee Waltz
DR10      -2.74 dB   -16.32 dB      2:47 07-Falling In Love
DR11      -1.22 dB   -15.81 dB      2:35 08-When A Boy Falls In Love
DR11      -2.42 dB   -14.87 dB      2:28 09-Good Times
DR12      -1.76 dB   -16.19 dB      2:52 10-Shake
DR13      -1.27 dB   -15.67 dB      2:34 11-Yeah Man
DR12      -1.09 dB   -15.27 dB      2:46 12-It's Got The Whole World Shaking
DR11      -1.00 dB   -16.24 dB      2:33 13-The Riddle Song
DR12      -2.93 dB   -16.51 dB      2:30 14-I'm Just A Country Boy
DR11      -0.12 dB   -15.88 dB      2:40 15-Try A Little Love
DR12      -1.51 dB   -15.46 dB      3:03 16-There'll Be No Second Time
DR13      -0.01 dB   -15.39 dB      2:42 17-Another Saturday Night
DR12      -1.79 dB   -16.08 dB      2:46 18-Sugar Dumpling
DR11      -0.39 dB   -14.56 dB      2:38 19-That's Where It's At
DR11      -1.63 dB   -15.55 dB      3:02 20-You're Nobody Till Somebody Loves You
DR12      -0.25 dB   -15.85 dB      2:56 21-(Somebody) Ease My Troublin' Mind
DR10      -1.81 dB   -15.28 dB      3:15 22-A Change Is Gonna Come
DR12      -1.05 dB   -16.26 dB      2:20 23-Keep Movin' On
--------------------------------------------------------------------------------

Number of tracks:  23
Official DR value: DR12

Samplerate:        88200 Hz
Channels:          2
Bits per sample:   24
Bitrate:           2574 kbps
Codec:             FLAC
================================================================================




Create a new paste based on this one


Comments: