[ create a new paste ] login | about

Link: http://codepad.org/ZkabhWV3    [ raw code | fork ]

Plain Text, pasted on Apr 12:
[CUETools log; Date: 4/12/2016 8:24:32 PM; Version: 2.1.5]
CDDBId mismatch: CF124721 vs 8B12711C
[CTDB TOCID: eiRNCTwNa9.OAZ3Ho6OKQ4H3ars-] found.
Track | CTDB Status
  1   | (6/6) Accurately ripped
  2   | (6/6) Accurately ripped
  3   | (6/6) Accurately ripped
  4   | (6/6) Accurately ripped
  5   | (6/6) Accurately ripped
  6   | (6/6) Accurately ripped
  7   | (6/6) Accurately ripped
  8   | (6/6) Accurately ripped
  9   | (6/6) Accurately ripped
 10   | (6/6) Accurately ripped
 11   | (6/6) Accurately ripped
 12   | (6/6) Accurately ripped
 13   | (6/6) Accurately ripped
 14   | (6/6) Accurately ripped
 15   | (6/6) Accurately ripped
 16   | (6/6) Accurately ripped
 17   | (6/6) Accurately ripped
 18   | (6/6) Accurately ripped
 19   | (6/6) Accurately ripped
 20   | (6/6) Accurately ripped
 21   | (6/6) Accurately ripped
 22   | (6/6) Accurately ripped
 23   | (6/6) Accurately ripped
 24   | (5/6) Accurately ripped
 25   | (6/6) Accurately ripped
 26   | (6/6) Accurately ripped
 27   | (6/6) Accurately ripped
 28   | (6/6) Accurately ripped
[AccurateRip ID: 004bd74f-05ff341b-8b12711c] found.
Track   [  CRC   |   V2   ] Status
 01     [f33a4553|920cad68] (3+5/8) Accurately ripped
 02     [1aeb88e9|7a411fc2] (3+5/8) Accurately ripped
 03     [72a361e5|f5586a89] (2+5/7) Accurately ripped
 04     [0223f230|93df7397] (3+5/8) Accurately ripped
 05     [723a2780|dbbbf8ef] (3+5/8) Accurately ripped
 06     [33384913|e8c6af1c] (3+5/8) Accurately ripped
 07     [ddd1bbfe|80bf145d] (3+5/8) Accurately ripped
 08     [75d08dcd|7e4528dc] (3+5/8) Accurately ripped
 09     [3625318e|f82c96e6] (3+5/8) Accurately ripped
 10     [a259db65|386d6ae0] (3+5/8) Accurately ripped
 11     [80da83bc|c8cab347] (3+5/8) Accurately ripped
 12     [cbfe6212|b8573b22] (3+5/8) Accurately ripped
 13     [b519f9dd|dc8910fa] (3+5/8) Accurately ripped
 14     [9902cd7c|4f416778] (3+5/8) Accurately ripped
 15     [5957301a|033c892c] (3+5/8) Accurately ripped
 16     [603a3215|230db1b8] (3+5/8) Accurately ripped
 17     [892d23ca|62abd554] (3+5/8) Accurately ripped
 18     [084bb2d8|03ce159e] (3+5/8) Accurately ripped
 19     [b4e15316|1e0b9dbf] (3+5/8) Accurately ripped
 20     [48141d60|5eb67d76] (3+5/8) Accurately ripped
 21     [cb529109|3884dae3] (3+5/8) Accurately ripped
 22     [df387d90|acfdb024] (3+5/8) Accurately ripped
 23     [6a19aa12|c0e369cd] (3+5/8) Accurately ripped
 24     [c371fa79|799cefc5] (3+5/8) Accurately ripped
 25     [ae7adb57|1d967380] (3+5/8) Accurately ripped
 26     [50c077b7|d2641008] (3+5/8) Accurately ripped
 27     [fda6842a|7c414bb6] (3+5/8) Accurately ripped
 28     [69093fce|642a9842] (3+5/8) Accurately ripped

Track Peak [ CRC32  ] [W/O NULL] 
 --   98.0 [3B3D3103] [20078F38]           
 01   98.0 [294ACBF5] [E546F160]           
 02   98.0 [91FCE29E] [3E1577A8]           
 03   97.9 [63BE6584] [A05C41D6]           
 04   98.0 [4C679B34] [5C5FDD0A]           
 05   98.0 [1707A4D2] [7E24021F]           
 06   82.6 [D5556C5B] [6194BC0D]           
 07   95.3 [D24AE650] [8B810470]           
 08   98.0 [0B4F6083] [87D2066B]           
 09   98.0 [28F2F53A] [B189FA86]           
 10   97.2 [4488ACAA] [97941721]           
 11   98.0 [34D6DF06] [0E03E3F5]           
 12   98.0 [CD1E4619] [3CFE8695]           
 13   98.0 [3C045201] [90815AB3]           
 14   97.9 [BD1BDB1E] [44D4713E]           
 15   98.0 [669F21B3] [B2831494]           
 16   98.0 [E94466D5] [546FEDE1]           
 17   98.0 [679DAD71] [5CA78465]           
 18   98.0 [043C3CF7] [B11B87FD]           
 19   98.0 [904EA80E] [B380A799]           
 20   98.0 [6BBF5994] [4986BAF7]           
 21   98.0 [224C2C9F] [62051C78]           
 22   98.0 [80463CE1] [72F648A1]           
 23   98.0 [2919841E] [0C7D1247]           
 24   98.0 [0B37FCD1] [A42F4B51]           
 25   98.0 [539232E7] [2A9289FE]           
 26   98.0 [875B8688] [2AE5D071]           
 27   98.0 [1EFCF16E] [C1027B04]           
 28   98.0 [625A91BD] [BA1A121A]           



Create a new paste based on this one


Comments: