[ create a new paste ] login | about

Link: http://codepad.org/Zp8opWcq    [ raw code | fork ]

Plain Text, pasted on Jun 13:
Exact Audio Copy V1.0 beta 2 from 29. April 2011

EAC extraction logfile from 3. July 2011, 12:16

Jackson 5 / Third Album / Maybe Tomorrow

Used drive  : HL-DT-STDVDRAM GSA-H60N   Adapter: 2  ID: 0

Read mode               : Secure
Utilize accurate stream : Yes
Defeat audio cache      : Yes
Make use of C2 pointers : No

Read offset correction                      : 667
Overread into Lead-In and Lead-Out          : No
Fill up missing offset samples with silence : Yes
Delete leading and trailing silent blocks   : No
Null samples used in CRC calculations       : Yes
Used interface                              : Native Win32 interface for Win NT & 2000

Used output format : Internal WAV Routines
Sample format      : 44.100 Hz; 16 Bit; Stereo


TOC of the extracted CD

     Track |   Start  |  Length  | Start sector | End sector 
    ---------------------------------------------------------
        1  |  0:00.00 |  3:59.70 |         0    |    17994   
        2  |  3:59.70 |  2:34.50 |     17995    |    29594   
        3  |  6:34.45 |  2:16.52 |     29595    |    39846   
        4  |  8:51.22 |  5:52.55 |     39847    |    66301   
        5  | 14:44.02 |  3:09.60 |     66302    |    80536   
        6  | 17:53.62 |  3:32.43 |     80537    |    96479   
        7  | 21:26.30 |  2:41.65 |     96480    |   108619   
        8  | 24:08.20 |  3:09.00 |    108620    |   122794   
        9  | 27:17.20 |  3:28.70 |    122795    |   138464   
       10  | 30:46.15 |  4:22.20 |    138465    |   158134   
       11  | 35:08.35 |  2:40.42 |    158135    |   170176   
       12  | 37:49.02 |  4:47.73 |    170177    |   191774   
       13  | 42:37.00 |  3:04.57 |    191775    |   205631   
       14  | 45:41.57 |  3:02.58 |    205632    |   219339   
       15  | 48:44.40 |  3:06.07 |    219340    |   233296   
       16  | 51:50.47 |  2:37.08 |    233297    |   245079   
       17  | 54:27.55 |  2:56.30 |    245080    |   258309   
       18  | 57:24.10 |  3:26.65 |    258310    |   273824   
       19  | 60:51.00 |  3:08.12 |    273825    |   287936   
       20  | 63:59.12 |  3:13.28 |    287937    |   302439   
       21  | 67:12.40 |  2:48.67 |    302440    |   315106   
       22  | 70:01.32 |  3:03.43 |    315107    |   328874   
       23  | 73:05.00 |  2:34.20 |    328875    |   340444   
       24  | 75:39.20 |  2:45.52 |    340445    |   352871   


Range status and errors

Selected range

     Filename C:\Documents and Settings\2011 Dear Michael 12 SHM-CD\Disc 5 Third Album - Maybe Tomorrow\Third Album - Maybe Tomorrow.wav

     Peak level 100.0 %
     Extraction speed 6.3 X
     Range quality 100.0 %
     Test CRC ACF6B78C
     Copy CRC ACF6B78C
     Copy OK

No errors occurred

 
AccurateRip summary
 
Track  1  accurately ripped (confidence 2)  [3D07C196]  (AR v1)
Track  2  accurately ripped (confidence 2)  [034EDA3B]  (AR v1)
Track  3  accurately ripped (confidence 2)  [42045A6A]  (AR v1)
Track  4  accurately ripped (confidence 2)  [C4FF5622]  (AR v1)
Track  5  accurately ripped (confidence 2)  [142FF5A9]  (AR v1)
Track  6  accurately ripped (confidence 2)  [D8E8432D]  (AR v1)
Track  7  accurately ripped (confidence 2)  [734447A8]  (AR v1)
Track  8  accurately ripped (confidence 2)  [A76ECDF4]  (AR v1)
Track  9  accurately ripped (confidence 2)  [BF2894EA]  (AR v1)
Track 10  accurately ripped (confidence 2)  [A3AB950B]  (AR v1)
Track 11  accurately ripped (confidence 2)  [039BD194]  (AR v1)
Track 12  accurately ripped (confidence 2)  [7C6093DE]  (AR v1)
Track 13  accurately ripped (confidence 2)  [2A771728]  (AR v1)
Track 14  accurately ripped (confidence 2)  [D158B1E1]  (AR v1)
Track 15  accurately ripped (confidence 2)  [3808A7DF]  (AR v1)
Track 16  accurately ripped (confidence 2)  [CA660107]  (AR v1)
Track 17  accurately ripped (confidence 2)  [24600760]  (AR v1)
Track 18  accurately ripped (confidence 2)  [9F9FB4AE]  (AR v1)
Track 19  accurately ripped (confidence 2)  [C3D51274]  (AR v1)
Track 20  accurately ripped (confidence 2)  [A06AC079]  (AR v1)
Track 21  accurately ripped (confidence 2)  [FDCF380B]  (AR v1)
Track 22  accurately ripped (confidence 2)  [36D4FC48]  (AR v1)
Track 23  accurately ripped (confidence 2)  [992F5B66]  (AR v1)
Track 24  accurately ripped (confidence 2)  [C4AA165F]  (AR v1)
 
All tracks accurately ripped

End of status report


==== Log checksum 84852F27DDE4CF117E1941CAAFED76D18A6012817CB5D90A588868B9E3CE8B42 ====



Create a new paste based on this one


Comments: