[ create a new paste ] login | about

Link: http://codepad.org/ZqKMSTKs    [ raw code | fork ]

Plain Text, pasted on Dec 20:
foobar2000 1.6 / Dynamic Range Meter 1.1.1
log date: 2020-12-20 04:47:30

--------------------------------------------------------------------------------
Analyzed: ? / ?
--------------------------------------------------------------------------------

DR         Peak         RMS     Duration Track
--------------------------------------------------------------------------------
DR9       -6.52 dB   -16.69 dB      3:49 01-Dream A Dream
DR7       -5.34 dB   -15.25 dB      3:21 02-O Come, All Ye Faithful
DR8       -5.69 dB   -17.35 dB      2:55 03-The Little Drummer Boy
DR8       -5.62 dB   -17.30 dB      3:29 04-Mary's Boy Child
DR7       -5.82 dB   -15.09 dB      2:18 05-Ding Dong! Merrily On High
DR8       -5.87 dB   -15.73 dB      3:02 06-Winter Wonderland
DR9       -6.72 dB   -19.64 dB      3:27 07-The Christmas Song (Chestnuts Roasting On An Open Fire)
DR7       -5.59 dB   -14.61 dB      3:16 08-Hark! The Herald Angels Sing
DR8       -5.95 dB   -16.18 dB      2:30 09-The Coventry Carol - Lully Lullay
DR7       -5.54 dB   -15.04 dB      2:12 10-Joy To The World
DR7       -6.01 dB   -16.70 dB      2:29 11-When A Child Is Born
DR8       -6.04 dB   -17.09 dB      2:44 12-What Child Is This - Greensleeves
DR8       -5.73 dB   -18.51 dB      1:59 13-God Rest Ye Merry, Gentlemen
DR7       -5.94 dB   -16.95 dB      3:35 14-Draw Tua Bethlehem - Far Over Bethlehem
DR8       -6.35 dB   -18.25 dB      2:48 15-Ave Maria
DR9       -7.87 dB   -20.86 dB      2:41 16-Gabriel's Message
DR6       -5.59 dB   -15.07 dB      4:21 17-O Holy Night
DR10      -7.27 dB   -20.01 dB      2:32 18-Lo! How A Rose E'er Blooming
DR7       -5.60 dB   -16.38 dB      3:47 19-Silent Night
--------------------------------------------------------------------------------

Number of tracks:  19
Official DR value: DR8

Samplerate:        2822400 Hz / PCM Samplerate: 176400 Hz
Channels:          2
Bits per sample:   1
Bitrate:           5645 kbps
Codec:             DSD64
================================================================================




Create a new paste based on this one


Comments: