[ create a new paste ] login | about

Link: http://codepad.org/ZuHbR8Ly    [ raw code | fork ]

Plain Text, pasted on Dec 28:
Exact Audio Copy V1.0 beta 3 from 29. August 2011

EAC extraction logfile from 18. December 2015, 11:21

The Tremeloes / The Best Of The Tremeloes (R2 70528)

Used drive  : HL-DT-STDVD-RAM GSA-H22L   Adapter: 4  ID: 4

Read mode               : Secure
Utilize accurate stream : Yes
Defeat audio cache      : Yes
Make use of C2 pointers : No

Read offset correction                      : 102
Overread into Lead-In and Lead-Out          : No
Fill up missing offset samples with silence : Yes
Delete leading and trailing silent blocks   : No
Null samples used in CRC calculations       : Yes
Used interface                              : Native Win32 interface for Win NT & 2000

Used output format : Internal WAV Routines
Sample format      : 44.100 Hz; 16 Bit; Stereo


TOC of the extracted CD

     Track |   Start  |  Length  | Start sector | End sector 
    ---------------------------------------------------------
        1  |  0:00.00 |  3:12.22 |         0    |    14421   
        2  |  3:12.22 |  3:03.58 |     14422    |    28204   
        3  |  6:16.05 |  2:40.30 |     28205    |    40234   
        4  |  8:56.35 |  3:10.40 |     40235    |    54524   
        5  | 12:07.00 |  2:47.60 |     54525    |    67109   
        6  | 14:54.60 |  2:47.65 |     67110    |    79699   
        7  | 17:42.50 |  3:05.00 |     79700    |    93574   
        8  | 20:47.50 |  3:15.40 |     93575    |   108239   
        9  | 24:03.15 |  2:48.40 |    108240    |   120879   
       10  | 26:51.55 |  2:41.25 |    120880    |   132979   
       11  | 29:33.05 |  3:22.45 |    132980    |   148174   
       12  | 32:55.50 |  2:42.37 |    148175    |   160361   
       13  | 35:38.12 |  3:48.33 |    160362    |   177494   
       14  | 39:26.45 |  3:37.25 |    177495    |   193794   
       15  | 43:03.70 |  2:50.20 |    193795    |   206564   
       16  | 45:54.15 |  3:34.12 |    206565    |   222626   
       17  | 49:28.27 |  2:24.03 |    222627    |   233429   
       18  | 51:52.30 |  3:05.22 |    233430    |   247326   
       19  | 54:57.52 |  3:32.63 |    247327    |   263289   
       20  | 58:30.40 |  3:09.15 |    263290    |   277479   


Range status and errors

Selected range

     Filename D:\Ready.zp\The Tremeloes - The Best Of The Tremeloes (R2 70528).wav

     Peak level 100.0 %
     Extraction speed 2.7 X
     Range quality 100.0 %
     Test CRC 174AF8BD
     Copy CRC 174AF8BD
     Copy OK

No errors occurred

 
AccurateRip summary
 
Track  1  accurately ripped (confidence 3)  [A3644561]  (AR v2)
Track  2  accurately ripped (confidence 3)  [C170A8E7]  (AR v2)
Track  3  accurately ripped (confidence 3)  [21379B81]  (AR v2)
Track  4  accurately ripped (confidence 3)  [C761C226]  (AR v2)
Track  5  accurately ripped (confidence 3)  [64A17BBC]  (AR v2)
Track  6  accurately ripped (confidence 3)  [8A53C8BF]  (AR v2)
Track  7  accurately ripped (confidence 3)  [D4525CFE]  (AR v2)
Track  8  accurately ripped (confidence 3)  [192FCA23]  (AR v2)
Track  9  accurately ripped (confidence 3)  [B307302D]  (AR v2)
Track 10  accurately ripped (confidence 3)  [4E6B4F50]  (AR v2)
Track 11  accurately ripped (confidence 3)  [3E43E15E]  (AR v2)
Track 12  accurately ripped (confidence 3)  [4A5A1AB5]  (AR v2)
Track 13  accurately ripped (confidence 3)  [AE44D85A]  (AR v2)
Track 14  accurately ripped (confidence 3)  [5CDAFD80]  (AR v2)
Track 15  accurately ripped (confidence 3)  [AB190E69]  (AR v2)
Track 16  accurately ripped (confidence 3)  [4CBE94BB]  (AR v2)
Track 17  accurately ripped (confidence 3)  [1EF65DCB]  (AR v2)
Track 18  accurately ripped (confidence 3)  [31DFBC94]  (AR v2)
Track 19  accurately ripped (confidence 3)  [143A0850]  (AR v2)
Track 20  accurately ripped (confidence 3)  [EB264E44]  (AR v2)
 
All tracks accurately ripped

End of status report

---- CUETools DB Plugin V2.1.3

[CTDB TOCID: C5_4l.G05hDsdsAUOaSdHkWvUDQ-] found, Submit result: C5_4l.G05hDsdsAUOaSdHkWvUDQ- has been confirmed
[d9c413cf] (2/2) Accurately ripped


==== Log checksum 8604564E025846F9ADC3B2273AD0BF6A4368C051365C33CB553120A152834E05 ====



Create a new paste based on this one


Comments: