[ create a new paste ] login | about

Link: http://codepad.org/a017154a    [ raw code | fork ]

Plain Text, pasted on Dec 9:
foobar2000 1.6 / Dynamic Range Meter 1.1.1
log date: 2020-12-08 17:14:23

--------------------------------------------------------------------------------
Analyzed: Henry Mancini / Mancini Country
--------------------------------------------------------------------------------

DR         Peak         RMS     Duration Track
--------------------------------------------------------------------------------
DR7       -8.06 dB   -24.93 dB      2:57 01-Mancini Country 
DR7       -7.83 dB   -23.73 dB      2:52 02-Mancini Country 
DR7       -8.41 dB   -24.76 dB      2:47 03-Mancini Country 
DR7       -7.61 dB   -23.18 dB      3:08 04-Mancini Country 
DR7       -9.91 dB   -26.54 dB      2:59 05-Mancini Country 
DR8       -7.83 dB   -25.03 dB      3:19 06-Mancini Country 
DR8       -7.69 dB   -24.98 dB      2:57 07-Mancini Country 
DR8       -7.17 dB   -24.25 dB      2:28 08-Mancini Country 
DR7       -7.55 dB   -23.90 dB      3:03 09-Mancini Country 
DR8       -8.58 dB   -24.86 dB      3:15 10-Mancini Country 
DR7       -8.56 dB   -25.05 dB      3:10 11-Mancini Country 
DR8       -7.86 dB   -25.51 dB      2:40 12-Country Gentleman 
DR8       -8.55 dB   -26.58 dB      3:15 13-Country Gentleman 
DR8       -8.26 dB   -26.46 dB      3:04 14-Country Gentleman 
DR7       -8.27 dB   -25.51 dB      2:41 15-Country Gentleman 
DR7       -8.75 dB   -26.32 dB      2:53 16-Country Gentleman 
DR7       -6.63 dB   -24.04 dB      2:59 17-Country Gentleman 
DR8       -7.35 dB   -25.95 dB      2:32 18-Country Gentleman 
DR7       -7.76 dB   -25.44 dB      2:29 19-Country Gentleman 
DR8       -7.75 dB   -26.36 dB      2:38 20-Country Gentleman 
DR8       -7.31 dB   -25.71 dB      5:00 21-Country Gentleman 
--------------------------------------------------------------------------------

Number of tracks:  21
Official DR value: DR8

Samplerate:        2822400 Hz / PCM Samplerate: 176400 Hz
Channels:          6
Bits per sample:   1
Bitrate:           16934 kbps
Codec:             DST64
================================================================================

--------------------------------------------------------------------------------
Analyzed: Henry Mancini / Mancini Country
--------------------------------------------------------------------------------

DR         Peak         RMS     Duration Track
--------------------------------------------------------------------------------
DR12      -9.22 dB   -24.19 dB      2:57 01-Mancini Country 
DR11      -9.06 dB   -23.11 dB      2:52 02-Mancini Country 
DR13      -7.89 dB   -23.86 dB      2:47 03-Mancini Country 
DR12      -9.48 dB   -24.03 dB      3:08 04-Mancini Country 
DR12     -10.03 dB   -24.87 dB      2:59 05-Mancini Country 
DR12      -9.94 dB   -25.16 dB      3:19 06-Mancini Country 
DR13      -9.03 dB   -24.70 dB      2:57 07-Mancini Country 
DR12     -10.32 dB   -24.93 dB      2:28 08-Mancini Country 
DR11      -9.58 dB   -23.73 dB      3:03 09-Mancini Country 
DR12     -10.09 dB   -24.55 dB      3:15 10-Mancini Country 
DR12     -10.69 dB   -25.23 dB      3:10 11-Mancini Country 
DR12      -7.64 dB   -23.19 dB      2:40 12-Country Gentleman 
DR13      -8.49 dB   -23.94 dB      3:15 13-Country Gentleman 
DR13      -8.46 dB   -24.13 dB      3:04 14-Country Gentleman 
DR12      -8.94 dB   -23.90 dB      2:41 15-Country Gentleman 
DR11      -9.40 dB   -24.70 dB      2:53 16-Country Gentleman 
DR12      -7.71 dB   -22.85 dB      2:59 17-Country Gentleman 
DR12     -10.47 dB   -26.04 dB      2:32 18-Country Gentleman 
DR13      -9.08 dB   -25.41 dB      2:29 19-Country Gentleman 
DR13      -7.46 dB   -24.72 dB      2:38 20-Country Gentleman 
DR12      -8.76 dB   -24.08 dB      5:00 21-Country Gentleman 
--------------------------------------------------------------------------------

Number of tracks:  21
Official DR value: DR12

Samplerate:        2822400 Hz / PCM Samplerate: 176400 Hz
Channels:          2
Bits per sample:   1
Bitrate:           5645 kbps
Codec:             DST64
================================================================================




Create a new paste based on this one


Comments: