[ create a new paste ] login | about

Link: http://codepad.org/a0Uew0PO    [ raw code | fork ]

Plain Text, pasted on Jan 6:
Exact Audio Copy V0.99 prebeta 4 from 23. January 2008

EAC extraction logfile from 22. November 2008, 13:06

Jackson Browne / The Pretender (GZS-1047)

Used drive  : PLEXTOR DVDR   PX-760A   Adapter: 4  ID: 0

Read mode               : Secure
Utilize accurate stream : Yes
Defeat audio cache      : Yes
Make use of C2 pointers : No

Read offset correction                      : 30
Overread into Lead-In and Lead-Out          : No
Fill up missing offset samples with silence : Yes
Delete leading and trailing silent blocks   : No
Null samples used in CRC calculations       : No
Used interface                              : Native Win32 interface for Win NT & 2000

Used output format              : User Defined Encoder
Selected bitrate                : 768 kBit/s
Quality                         : High
Add ID3 tag                     : No
Command line compressor         : C:\Program Files\Exact Audio Copy\FLAC\FLAC.EXE
Additional command line options : -6 -V -T "ARTIST=%a" -T "TITLE=%t" -T "ALBUM=%g" -T "DATE=%y" -T "TRACKNUMBER=%n" -T "GENRE=%m" -T "COMMENT=%e" %s -o %d


TOC of the extracted CD

     Track |   Start  |  Length  | Start sector | End sector 
    ---------------------------------------------------------
        1  |  0:00.00 |  5:50.55 |         0    |    26304   
        2  |  5:50.55 |  6:06.00 |     26305    |    53754   
        3  | 11:56.55 |  4:08.55 |     53755    |    72409   
        4  | 16:05.35 |  3:40.17 |     72410    |    88926   
        5  | 19:45.52 |  3:44.68 |     88927    |   105794   
        6  | 23:30.45 |  3:38.02 |    105795    |   122146   
        7  | 27:08.47 |  2:39.10 |    122147    |   134081   
        8  | 29:47.57 |  5:53.10 |    134082    |   160566   


Range status and errors

Selected range

     Filename C:\MUSIC\Jackson Browne - The Pretender [GZS-1047]\Jackson Browne - The Pretender (GZS-1047).wav

     Peak level 100.0 %
     Range quality 100.0 %
     Copy CRC FC9EC2C7
     Copy OK

No errors occurred

 
AccurateRip summary
 
Track  1  accurately ripped (confidence 5)  [A5D0BF59]
Track  2  accurately ripped (confidence 5)  [A08CAB70]
Track  3  accurately ripped (confidence 5)  [BD9FE666]
Track  4  accurately ripped (confidence 5)  [AACC32DF]
Track  5  accurately ripped (confidence 5)  [F6B42860]
Track  6  accurately ripped (confidence 5)  [04F66D50]
Track  7  accurately ripped (confidence 5)  [EB0B26B7]
Track  8  accurately ripped (confidence 5)  [38DEDFA3]
 
All tracks accurately ripped

End of status report



Create a new paste based on this one


Comments: