[ create a new paste ] login | about

Link: http://codepad.org/a33a1lU2    [ raw code | fork ]

Plain Text, pasted on Apr 10:
CD 1
->
[CUETools log; Date: 4/10/2020 2:50:38 AM; Version: 2.1.7]
[CTDB TOCID: G4okPGV8kN3hNV4OzFs0CkEym20-] found.
Track | CTDB Status
  1   | (27/27) Accurately ripped
  2   | (27/27) Accurately ripped
  3   | (27/27) Accurately ripped
  4   | (27/27) Accurately ripped
  5   | (27/27) Accurately ripped
  6   | (27/27) Accurately ripped
  7   | (27/27) Accurately ripped
  8   | (27/27) Accurately ripped
  9   | (27/27) Accurately ripped
 10   | (27/27) Accurately ripped
 11   | (27/27) Accurately ripped
[AccurateRip ID: 001a4c44-00e2b3d6-a50e730b] found.
Track   [  CRC   |   V2   ] Status
 01     [3c4f551b|0bcb80e5] (0+1/1) Accurately ripped
 02     [ab45c359|acd39c79] (0+1/1) Accurately ripped
 03     [fa76ace8|32a21786] (0+1/1) Accurately ripped
 04     [1a786863|adc3aa45] (0+1/1) Accurately ripped
 05     [a4664b02|c8d3148f] (0+1/1) Accurately ripped
 06     [7db2a6c7|49cd0725] (0+1/1) Accurately ripped
 07     [d5ca552e|70601361] (0+1/1) Accurately ripped
 08     [5a5c1c0c|574f68c4] (0+1/1) Accurately ripped
 09     [bbce7052|27e6b694] (0+1/1) Accurately ripped
 10     [289fdabc|8f32c9c6] (0+1/1) Accurately ripped
 11     [63394bc5|eb5cd939] (0+1/1) Accurately ripped

Track Peak [ CRC32  ] [W/O NULL] [  LOG   ]
 --   98.9 [FD12FE35] [D805C0F3]   CRC32   
 01   97.8 [1948B600] [43B1C03F]           
 02   97.7 [7F3A43F7] [6B1FBD02]           
 03   98.9 [E8E95C49] [3ABAD971]           
 04   98.1 [948720F1] [DD640B9B]           
 05   98.6 [2D3EF130] [DE5177E5]           
 06   98.6 [44E6E0D7] [B1C40837]           
 07   97.5 [E9107841] [45B8B34E]           
 08   97.9 [B0F26DF6] [6B85CFAF]           
 09   98.3 [36C2955F] [F9F023CC]           
 10   97.6 [61D6C23B] [8AA905B2]           
 11   95.1 [2408371B] [33ED84F7]           
->
=========================================================================================================================================================
->
CD 2
->
[CUETools log; Date: 4/10/2020 2:50:17 AM; Version: 2.1.7]
[CTDB TOCID: qL.etYv5srxqleMMjiN2Bf81uY8-] found.
Track | CTDB Status
  1   | (25/25) Accurately ripped
  2   | (25/25) Accurately ripped
  3   | (25/25) Accurately ripped
  4   | (25/25) Accurately ripped
  5   | (25/25) Accurately ripped
  6   | (25/25) Accurately ripped
  7   | (25/25) Accurately ripped
  8   | (25/25) Accurately ripped
  9   | (24/25) Accurately ripped
 10   | (24/25) Accurately ripped
 11   | (24/25) Accurately ripped
 12   | (24/25) Accurately ripped
 13   | (24/25) Accurately ripped
 14   | (24/25) Accurately ripped
 15   | (24/25) Accurately ripped
[AccurateRip ID: 0028e714-01d15f79-c8118e0f] found.
Track   [  CRC   |   V2   ] Status
 01     [a9352fb4|70743342] (0+2/2) Accurately ripped
 02     [b9be8853|26ef2467] (0+2/2) Accurately ripped
 03     [7cf6b7c5|f6a7091b] (0+2/2) Accurately ripped
 04     [98848f76|68dd5dcb] (0+2/2) Accurately ripped
 05     [7f05198c|05471600] (0+2/2) Accurately ripped
 06     [db9fb102|c75cfa69] (0+2/2) Accurately ripped
 07     [801d8da1|003de5d5] (0+2/2) Accurately ripped
 08     [aa83f719|96394c0a] (0+2/2) Accurately ripped
 09     [28f8b110|71fa518b] (0+2/2) Accurately ripped
 10     [89683573|77401bd4] (0+2/2) Accurately ripped
 11     [d1a1d231|4bd20b81] (0+2/2) Accurately ripped
 12     [974c4c88|5f94835f] (0+2/2) Accurately ripped
 13     [76b6e14c|22628094] (0+2/2) Accurately ripped
 14     [a2ef209d|94224ba7] (0+2/2) Accurately ripped
 15     [fd9ebf24|072e3493] (0+2/2) Accurately ripped

Track Peak [ CRC32  ] [W/O NULL] [  LOG   ]
 --   97.7 [9AB70CC9] [86DAD58B]   CRC32   
 01   97.7 [B3AD67FC] [9456B9C8]           
 02   97.7 [612FEBF1] [793E247D]           
 03   97.7 [824D9EF9] [9FCFB7B1]           
 04   97.6 [2764CAAE] [872FFBC5]           
 05   97.4 [9894853B] [FAA6A9A9]           
 06   97.6 [6E1AA668] [29AAF91F]           
 07   97.7 [2EA9BB9B] [3661365C]           
 08   97.6 [37241BEF] [F245D5E9]           
 09   97.6 [C17CF234] [2D06E20F]           
 10   97.7 [5790A0C3] [BAFDCE81]           
 11   97.7 [280E63B7] [5DFA309C]           
 12   97.5 [661F4CBE] [B51D130E]           
 13   97.7 [60E689DA] [7338B198]           
 14   97.7 [2F22A8D9] [E7A8D4E2]           
 15   97.7 [F86789FE] [8CDA3577]           
->
=========================================================================================================================================================
->
CD 3
->
[CUETools log; Date: 4/10/2020 2:50:25 AM; Version: 2.1.7]
[CTDB TOCID: WYEfbJjGq0AhGKcoDbbve1mR33Y-] found.
Track | CTDB Status
  1   | (19/19) Accurately ripped
  2   | (19/19) Accurately ripped
  3   | (19/19) Accurately ripped
  4   | (19/19) Accurately ripped
  5   | (19/19) Accurately ripped
  6   | (19/19) Accurately ripped
  7   | (19/19) Accurately ripped
  8   | (19/19) Accurately ripped
  9   | (19/19) Accurately ripped
 10   | (19/19) Accurately ripped
[AccurateRip ID: 0016804e-00baa6c5-9d0f420a] found.
Track   [  CRC   |   V2   ] Status
 01     [3019b5e1|cb0a8011] (0+1/1) Accurately ripped
 02     [c868ef91|0753b534] (0+1/1) Accurately ripped
 03     [21f7ec3f|484ce70f] (0+1/1) Accurately ripped
 04     [3260155b|b6054d52] (0+1/1) Accurately ripped
 05     [1edbc001|e30f0f57] (0+1/1) Accurately ripped
 06     [89970a9b|a9813b08] (0+1/1) Accurately ripped
 07     [ffb26898|ab31b18c] (0+1/1) Accurately ripped
 08     [abbf6f1f|b9ea839b] (0+1/1) Accurately ripped
 09     [d204b788|a0c8521a] (0+1/1) Accurately ripped
 10     [103d020f|bb7248eb] (0+1/1) Accurately ripped

Track Peak [ CRC32  ] [W/O NULL] [  LOG   ]
 --  100.0 [23153E9D] [5E570FE1]   CRC32   
 01   97.7 [C699BFD7] [2117A6E7]           
 02   98.0 [B43AE5E3] [FB5FE54E]           
 03   98.3 [241001AA] [4767CD71]           
 04   98.8 [94DB95D3] [E2E6952A]           
 05   98.1 [AE7374F1] [C0926CEC]           
 06  100.0 [61AFBFF1] [48C64713]           
 07   98.0 [8187E4A1] [BE00D160]           
 08   98.3 [9E1D098B] [BD3BA070]           
 09   98.0 [DEB29C0B] [B20EFA23]           
 10   99.6 [88A5621D] [C092AC96]           
->
=========================================================================================================================================================
->
CD 4
->
[CUETools log; Date: 4/10/2020 2:50:32 AM; Version: 2.1.7]
[CTDB TOCID: 8mDlQIHP5rtOEqQ643lijA_9Ha8-] found.
Track | CTDB Status
  1   | (18/18) Accurately ripped
  2   | (18/18) Accurately ripped
  3   | (18/18) Accurately ripped
  4   | (18/18) Accurately ripped
  5   | (18/18) Accurately ripped
  6   | (18/18) Accurately ripped
  7   | (18/18) Accurately ripped
  8   | (18/18) Accurately ripped
  9   | (18/18) Accurately ripped
[AccurateRip ID: 00159127-009fa5cd-6e0ef309] found.
Track   [  CRC   |   V2   ] Status
 01     [4ca2d011|91baa0dd] (0+1/1) Accurately ripped
 02     [b750b32f|e7259c47] (0+1/1) Accurately ripped
 03     [8d978d76|765b26a6] (0+1/1) Accurately ripped
 04     [1dfcb347|dd365c10] (0+1/1) Accurately ripped
 05     [8e3cd85a|1ebf58c2] (0+1/1) Accurately ripped
 06     [d840f54f|7029c647] (0+1/1) Accurately ripped
 07     [cb2f7186|0ec26f66] (0+1/1) Accurately ripped
 08     [2588099d|988e0596] (0+1/1) Accurately ripped
 09     [eec4512a|670c3066] (0+1/1) Accurately ripped

Track Peak [ CRC32  ] [W/O NULL] [  LOG   ]
 --  100.0 [EA651F0A] [BB50B93B]   CRC32   
 01   96.0 [A525677C] [4E193F57]           
 02   98.4 [C225594F] [440895DD]           
 03   99.1 [1EA76E75] [16C53D80]           
 04   98.1 [C8072526] [EE6102F7]           
 05   97.9 [6657484E] [3E562880]           
 06   97.8 [7B532067] [FED4BC49]           
 07  100.0 [47BBB5D0] [0C2335C8]           
 08   97.3 [66F24670] [2EB2BA82]           
 09   97.6 [B31270C3] [90FE4C9F]           



Create a new paste based on this one


Comments: