[ create a new paste ] login | about

Link: http://codepad.org/aGJHqFNc    [ raw code | fork ]

Plain Text, pasted on Oct 29:
foobar2000 1.3.17 / Dynamic Range Meter 1.1.1
log date: 2018-10-21 18:48:31

--------------------------------------------------------------------------------
Analyzed: Charles Aznavour / IDIOTE JE T'AIME
--------------------------------------------------------------------------------

DR         Peak         RMS     Duration Track
--------------------------------------------------------------------------------
DR11      -4.32 dB   -20.87 dB      6:26 01-Non je n'ai rien oublie
DR11      -4.61 dB   -19.36 dB      2:39 02-Un par un
DR11      -3.99 dB   -19.40 dB      4:39 03-Ma vie oh ma vie
DR11      -4.07 dB   -19.18 dB      3:05 04-Comme des roses
DR11      -4.93 dB   -20.73 dB      3:57 05-Mourir d'aimer
DR11      -4.50 dB   -19.79 dB      3:54 06-L'instant present
DR11      -4.46 dB   -19.68 dB      3:11 07-Partir
DR11      -4.69 dB   -19.27 dB      2:32 08-J'ai vecu
DR11      -4.68 dB   -19.74 dB      3:51 09-Je ne veux plus parler d'amour
DR11      -4.77 dB   -20.01 dB      3:26 10-Idiote je t'aime
DR11      -4.92 dB   -20.29 dB      4:56 11-A ma femme
DR11      -5.05 dB   -20.01 dB      2:09 12-Ton nom
DR12      -5.21 dB   -20.97 dB      5:54 13-Les plaisirs demodes
DR11      -4.90 dB   -20.55 dB      4:54 14-Comme ils disent
DR11      -4.39 dB   -20.19 dB      2:39 15-L'indifference
DR11      -4.29 dB   -19.63 dB      3:19 16-Je t'aime
DR11      -5.04 dB   -20.64 dB      2:44 17-On se reveillera
DR12      -5.23 dB   -21.69 dB      4:36 18-Me voila seul
--------------------------------------------------------------------------------

Number of tracks:  18
Official DR value: DR11

Samplerate:        2822400 Hz / PCM Samplerate: 352800 Hz
Channels:          6
Bits per sample:   1
Bitrate:           16934 kbps
Codec:             DST64
================================================================================

--------------------------------------------------------------------------------
Analyzed: Charles Aznavour / IDIOTE JE T'AIME
--------------------------------------------------------------------------------

DR         Peak         RMS     Duration Track
--------------------------------------------------------------------------------
DR11      -3.26 dB   -17.69 dB      6:26 01-Non je n'ai rien oublie
DR10      -3.69 dB   -15.49 dB      2:39 02-Un par un
DR10      -3.66 dB   -16.40 dB      4:39 03-Ma vie oh ma vie
DR10      -3.64 dB   -15.91 dB      3:05 04-Comme des roses
DR11      -3.64 dB   -17.05 dB      3:57 05-Mourir d'aimer
DR10      -4.88 dB   -16.44 dB      3:54 06-L'instant present
DR11      -3.73 dB   -16.89 dB      3:11 07-Partir
DR10      -4.01 dB   -15.99 dB      2:32 08-J'ai vecu
DR10      -4.38 dB   -16.38 dB      3:51 09-Je ne veux plus parler d'amour
DR10      -4.01 dB   -16.38 dB      3:26 10-Idiote je t'aime
DR11      -3.87 dB   -16.60 dB      4:56 11-A ma femme
DR10      -3.88 dB   -16.51 dB      2:09 12-Ton nom
DR12      -3.91 dB   -17.79 dB      5:55 13-Les plaisirs demodes
DR11      -4.39 dB   -17.15 dB      4:54 14-Comme ils disent
DR11      -4.72 dB   -17.93 dB      2:39 15-L'indifference
DR11      -4.16 dB   -17.05 dB      3:19 16-Je t'aime
DR11      -4.44 dB   -17.27 dB      2:44 17-On se reveillera
DR11      -4.67 dB   -18.73 dB      4:36 18-Me voila seul
--------------------------------------------------------------------------------

Number of tracks:  18
Official DR value: DR11

Samplerate:        2822400 Hz / PCM Samplerate: 352800 Hz
Channels:          2
Bits per sample:   1
Bitrate:           5645 kbps
Codec:             DST64
================================================================================




Create a new paste based on this one


Comments: