[ create a new paste ] login | about

Link: http://codepad.org/aH4PFhvy    [ raw code | fork ]

Plain Text, pasted on Apr 27:
foobar2000 1.3.17 / Dynamic Range Meter 1.1.1
log date: 2018-04-27 11:09:40

--------------------------------------------------------------------------------
Analyzed: LOVE / Forever Changes
--------------------------------------------------------------------------------

DR         Peak         RMS     Duration Track
--------------------------------------------------------------------------------
DR12      -5.95 dB   -23.53 dB      3:16 01-Alone Again Or
DR10      -8.76 dB   -22.20 dB      3:28 02-A House Is Not A Motel
DR13      -7.08 dB   -23.61 dB      3:19 03-Andmoreagain
DR13      -7.23 dB   -23.01 dB      3:28 04-The Daily Planet
DR11      -9.50 dB   -24.66 dB      3:00 05-Old Man
DR12     -10.35 dB   -24.77 dB      4:45 06-The Red Telephone
DR12      -6.83 dB   -20.46 dB      3:31 07-Maybe The People Would Be The Times Or Between Clark And Hilldale
DR11      -9.14 dB   -23.33 dB      5:25 08-Live And Let Live
DR13      -9.27 dB   -26.52 dB      3:05 09-The Good Humor Man He Sees Everything Like This
DR12      -8.28 dB   -22.68 dB      2:22 10-Bummer In The Summer
DR12      -7.58 dB   -23.23 dB      6:53 11-You Set The Scene
--------------------------------------------------------------------------------

Number of tracks:  11
Official DR value: DR12

Samplerate:        2822400 Hz / PCM Samplerate: 176400 Hz
Channels:          2
Bits per sample:   1
Bitrate:           5645 kbps
Codec:             DSD64
================================================================================




Create a new paste based on this one


Comments: