[ create a new paste ] login | about

Link: http://codepad.org/aHd2cXNh    [ raw code | fork ]

Plain Text, pasted on May 14:
[CUETools log; Date: 5/14/2016 11:13:46 PM; Version: 2.1.5]
[CTDB TOCID: Wgg_THxxIeLSOU0MTrqORcyNqmI-] found.
Track | CTDB Status
  1   | (24/25) Accurately ripped
  2   | (24/25) Accurately ripped
  3   | (24/25) Accurately ripped
  4   | (24/25) Accurately ripped
  5   | (24/25) Accurately ripped
  6   | (24/25) Accurately ripped
  7   | (24/25) Accurately ripped
  8   | (24/25) Accurately ripped
  9   | (23/25) Accurately ripped
 10   | (24/25) Accurately ripped
 11   | (24/25) Accurately ripped
[AccurateRip ID: 000eda94-007fcf12-84088e0b] found.
Track   [  CRC   |   V2   ] Status
 01     [1f514fe2|47442229] (03+48/51) Accurately ripped
 02     [2e64c298|b3459619] (03+48/51) Accurately ripped
 03     [2f2d0838|cbad8af0] (03+48/51) Accurately ripped
 04     [b52dd0d3|bb24c614] (03+48/51) Accurately ripped
 05     [20f414a7|c50512cc] (02+48/50) Accurately ripped
 06     [ebe6a881|debe3188] (02+48/50) Accurately ripped
 07     [af011863|12471393] (02+48/50) Accurately ripped
 08     [5a79c534|7a140b73] (02+48/50) Accurately ripped
 09     [1ffc4a4f|c967d247] (02+48/50) Accurately ripped
 10     [5d26d0dc|f51625b9] (02+48/50) Accurately ripped
 11     [597a88a1|8d33a29c] (03+48/51) Accurately ripped

Track Peak [ CRC32  ] [W/O NULL] [  LOG   ]
 --  100.0 [616012FF] [628AD7FD]   CRC32   
 01   98.3 [DDA8ACC2] [F8AD345F]           
 02  100.0 [FF867B15] [F086BD54]           
 03   98.5 [E3649D0F] [85C5BF93]           
 04  100.0 [C6C6EB1E] [C33C1D75]           
 05   55.7 [820096D8] [4854DD7B]           
 06   96.4 [2B63B560] [A38FCCDE]           
 07   98.5 [881124A5] [1554DA0C]           
 08   98.4 [A4D7C677] [5BC6044D]           
 09   95.4 [41E56A6B] [C3D8ED92]           
 10   98.9 [510B6F88] [9BAD4FEF]           
 11   99.9 [AAAEB074] [C4978F96]           



Create a new paste based on this one


Comments: