[ create a new paste ] login | about

Link: http://codepad.org/aJbbxKwJ    [ raw code | fork ]

Plain Text, pasted on Nov 27:
foobar2000 1.3.16 / Dynamic Range Meter 1.1.1
log date: 2017-11-27 14:25:45

--------------------------------------------------------------------------------
Analyzed: Elvis Presley / Christmas With Elvis And The Royal Philharmonic Orchestra (Deluxe)
--------------------------------------------------------------------------------

DR         Peak         RMS     Duration Track
--------------------------------------------------------------------------------
DR6        0.00 dB    -8.47 dB      2:29 01-Santa Claus Is Back In Town
DR7        0.00 dB    -9.54 dB      2:42 02-White Christmas
DR6        0.00 dB    -7.75 dB      2:03 03-Here Comes Santa Claus (Right Down Santa Claus Lane)
DR7        0.00 dB   -10.20 dB      4:51 04-Merry Christmas Baby
DR7        0.00 dB    -8.70 dB      2:10 05-Blue Christmas
DR7        0.00 dB    -8.95 dB      3:18 06-I'll Be Home For Christmas
DR7        0.00 dB    -8.99 dB      2:21 07-Winter Wonderland
DR7        0.00 dB    -8.50 dB      1:53 08-Santa Bring My Baby Back (To Me)
DR8        0.00 dB   -10.41 dB      2:56 09-Silver Bells
DR7        0.00 dB    -8.49 dB      2:50 10-Oh Little Town Of Bethlehem
DR6        0.00 dB    -9.22 dB      3:04 11-O Come All Ye Faithful
DR6        0.00 dB    -9.78 dB      2:54 12-The First Noel
DR7        0.00 dB   -10.76 dB      2:41 13-Silent Night
DR7        0.00 dB    -9.11 dB      3:26 14-(There'll Be) Peace In The Valley (For Me)
DR6        0.00 dB    -9.98 dB      3:00 15-I Believe
DR7        0.00 dB   -10.39 dB      3:42 16-Take My Hand, Precious Lord
DR8        0.00 dB   -11.07 dB      4:27 17-It Is No Secret (What God Can Do)
--------------------------------------------------------------------------------

Number of tracks:  17
Official DR value: DR7

Samplerate:        44100 Hz
Channels:          2
Bits per sample:   16
Bitrate:           831 kbps
Codec:             FLAC
================================================================================




Create a new paste based on this one


Comments: