[ create a new paste ] login | about

Link: http://codepad.org/aKA1QARu    [ raw code | fork ]

Plain Text, pasted on Dec 29:
CD1
:::

[CUETools log; Date: 12/28/2020 11:25:32 PM; Version: 2.1.7]
[CTDB TOCID: lWcjYSyzZkXHRHfEg2S5bt5Oq2s-] found.
Track | CTDB Status
  1   | (192/192) Accurately ripped
  2   | (192/192) Accurately ripped
  3   | (192/192) Accurately ripped
  4   | (192/192) Accurately ripped
  5   | (191/192) Accurately ripped
  6   | (192/192) Accurately ripped
  7   | (192/192) Accurately ripped
  8   | (192/192) Accurately ripped
  9   | (192/192) Accurately ripped
 10   | (192/192) Accurately ripped
 11   | (192/192) Accurately ripped
 12   | (192/192) Accurately ripped
 13   | (191/192) Accurately ripped
 14   | (192/192) Accurately ripped
 15   | (192/192) Accurately ripped
 16   | (192/192) Accurately ripped
 17   | (192/192) Accurately ripped
 18   | (183/192) Accurately ripped, or (2/192) differs in 1094 samples @03:49:54-03:49:56, or (2/192) differs in 1130 samples @03:49:54-03:49:56
[AccurateRip ID: 002c26dd-024e4f8a-0a101c12] found.
Track   [  CRC   |   V2   ] Status
 01     [d5828115|16200f75] (00+13/15) Accurately ripped
 02     [f6d4ed91|a6c09760] (00+13/15) Accurately ripped
 03     [11ada80a|02bfa26b] (00+13/15) Accurately ripped
 04     [671552ae|72c27d4d] (00+13/15) Accurately ripped
 05     [4b94ab4f|ce0f6aa2] (00+13/15) Accurately ripped
 06     [edfaa16e|b7a652f6] (00+13/15) Accurately ripped
 07     [edc8ead5|f56fd38b] (00+13/15) Accurately ripped
 08     [4c0bb9bd|46a20652] (00+13/15) Accurately ripped
 09     [4282dda8|8c322e76] (00+13/15) Accurately ripped
 10     [66eab3b4|2b19e276] (00+13/15) Accurately ripped
 11     [9623ac76|67a89d97] (00+13/15) Accurately ripped
 12     [e59a07cd|f5992126] (00+13/15) Accurately ripped
 13     [a0391096|7b53b9ae] (00+13/15) Accurately ripped
 14     [63244873|3dfa5121] (00+13/15) Accurately ripped
 15     [86facab3|96aec219] (00+13/15) Accurately ripped
 16     [5108c9f3|40fe411e] (00+13/15) Accurately ripped
 17     [705c0281|275af0b4] (00+13/15) Accurately ripped
 18     [8438c334|677bd0aa] (00+13/15) Accurately ripped
Offsetted by -12:
 01     [eb983de9] (00/15) No match (V2 was not tested)
 02     [a232d778] (00/15) No match (V2 was not tested)
 03     [6bf103a1] (00/15) No match (V2 was not tested)
 04     [8b5703f4] (00/15) No match (V2 was not tested)
 05     [df76bce4] (00/15) No match (V2 was not tested)
 06     [44dc8507] (00/15) No match (V2 was not tested)
 07     [971a79fe] (00/15) No match (V2 was not tested)
 08     [bbf81880] (00/15) No match (V2 was not tested)
 09     [ae41b6b9] (00/15) No match (V2 was not tested)
 10     [7bc5288c] (00/15) No match (V2 was not tested)
 11     [91fddd5a] (00/15) No match (V2 was not tested)
 12     [196eea51] (00/15) No match (V2 was not tested)
 13     [8f884f4a] (00/15) No match (V2 was not tested)
 14     [5deab6ee] (00/15) No match (V2 was not tested)
 15     [7b67ae1d] (00/15) No match (V2 was not tested)
 16     [e3d18c3d] (00/15) No match (V2 was not tested)
 17     [b7e41933] (00/15) No match (V2 was not tested)
 18     [7ade0500] (00/15) No match (V2 was not tested)

Track Peak [ CRC32  ] [W/O NULL] [  LOG   ]
 --   98.6 [744932F5] [9AB84B44]   CRC32   
 01   98.1 [18D13850] [FE2013A0]           
 02   93.6 [4E216C0B] [C84FE563]           
 03   97.7 [331FE4B7] [1D8773DA]           
 04   97.8 [CF4FA154] [0CE33ABD]           
 05   97.7 [13D867B2] [3926E9E3]           
 06   97.7 [EA05C24A] [EFAA724E]           
 07   98.6 [6E4B9A50] [33034706]           
 08   97.7 [C230D634] [DB7271BA]           
 09   97.8 [BB192BD9] [E7E54730]           
 10   92.8 [2A9C32B1] [219A3A36]           
 11   97.6 [237DF6D7] [9829E6F0]           
 12   98.0 [F697ADE1] [E8AB7B6A]           
 13   87.6 [2E09D48D] [812838F0]           
 14   98.2 [FF44EAF9] [006035D8]           
 15   92.8 [D5692D1B] [15B04E2B]           
 16   98.2 [65BE8ECF] [B8ED7C67]           
 17   98.3 [46E90EB3] [786E60ED]           
 18   98.4 [A622D4E4] [29279660]           


CD2
:::

[CUETools log; Date: 12/28/2020 11:27:44 PM; Version: 2.1.7]
[CTDB TOCID: 8nO3MvdgTp0EO8QcSWiDwlPX.xk-] found.
Track | CTDB Status
  1   | (193/193) Accurately ripped
  2   | (193/193) Accurately ripped
  3   | (193/193) Accurately ripped
  4   | (193/193) Accurately ripped
  5   | (193/193) Accurately ripped
  6   | (193/193) Accurately ripped
  7   | (193/193) Accurately ripped
  8   | (193/193) Accurately ripped
  9   | (193/193) Accurately ripped
 10   | (193/193) Accurately ripped
 11   | (193/193) Accurately ripped
 12   | (193/193) Accurately ripped
 13   | (193/193) Accurately ripped
 14   | (193/193) Accurately ripped
 15   | (193/193) Accurately ripped
 16   | (192/193) Accurately ripped
 17   | (193/193) Accurately ripped
 18   | (188/193) Accurately ripped, or (2/193) differs in 1083 samples @04:53:34-04:53:36
[AccurateRip ID: 002df543-025e33ff-0f102d12] found.
Track   [  CRC   |   V2   ] Status
 01     [6d32f0db|8d8edc99] (00+10/12) Accurately ripped
 02     [eeb0eaf3|1a2def44] (00+10/12) Accurately ripped
 03     [6c9245d6|c8cc93b3] (00+10/12) Accurately ripped
 04     [5c1486ac|4b24f12b] (00+10/12) Accurately ripped
 05     [6eea37d6|77bd7192] (00+10/12) Accurately ripped
 06     [aa3451b0|67ff5743] (00+10/12) Accurately ripped
 07     [407c9c36|67bc9d7b] (00+10/12) Accurately ripped
 08     [7591b59b|96c9f86c] (00+10/12) Accurately ripped
 09     [42ebe1c8|c3c8794b] (00+10/12) Accurately ripped
 10     [5710a3b9|58d5a91b] (00+10/12) Accurately ripped
 11     [c1fbe9b1|079c5001] (00+10/12) Accurately ripped
 12     [7103374c|45efdd25] (00+10/12) Accurately ripped
 13     [2f691ea3|72880b70] (00+10/12) Accurately ripped
 14     [65a79e26|9984686b] (00+10/12) Accurately ripped
 15     [f2052820|f9aa19ce] (00+10/12) Accurately ripped
 16     [e6617b0c|63cd9f0c] (00+10/12) Accurately ripped
 17     [77efe1a2|70cd36af] (00+10/12) Accurately ripped
 18     [5fe888c2|8ee57638] (00+10/12) Accurately ripped
Offsetted by -12:
 01     [52dba2f7] (00/12) No match (V2 was not tested)
 02     [c17f1fa9] (00/12) No match (V2 was not tested)
 03     [f79d8bff] (00/12) No match (V2 was not tested)
 04     [271a1266] (00/12) No match (V2 was not tested)
 05     [1da40d83] (00/12) No match (V2 was not tested)
 06     [99a41321] (00/12) No match (V2 was not tested)
 07     [67d21e07] (00/12) No match (V2 was not tested)
 08     [230e6c2f] (00/12) No match (V2 was not tested)
 09     [0f124645] (00/12) No match (V2 was not tested)
 10     [c182d3ae] (00/12) No match (V2 was not tested)
 11     [69bca5ec] (00/12) No match (V2 was not tested)
 12     [ddbb0d90] (00/12) No match (V2 was not tested)
 13     [0964d273] (00/12) No match (V2 was not tested)
 14     [c0510ee8] (00/12) No match (V2 was not tested)
 15     [bed963f0] (00/12) No match (V2 was not tested)
 16     [97a63c54] (00/12) No match (V2 was not tested)
 17     [9062c720] (00/12) No match (V2 was not tested)
 18     [0969865d] (00/12) No match (V2 was not tested)

Track Peak [ CRC32  ] [W/O NULL] [  LOG   ]
 --   99.1 [56E380F4] [F6F803D8]   CRC32   
 01   98.1 [2ECD5687] [CD1739FE]           
 02   97.7 [CE83930D] [737DD72C]           
 03   97.7 [8A179485] [8CCAAE40]           
 04   97.9 [DCF2E62D] [E883E594]           
 05   88.0 [BAA09324] [A7F1AA3D]           
 06   97.8 [5827FF99] [ABF96891]           
 07   98.3 [55307CE5] [4D154D1A]           
 08   99.1 [9A853A2B] [F81758C2]           
 09   97.7 [FBB3CB25] [31353433]           
 10   98.2 [7B5B7FCB] [57327482]           
 11   98.4 [A40C360E] [5144EF28]           
 12   98.0 [187EF77F] [1F7BD65A]           
 13   85.3 [EFF46527] [104BADB9]           
 14   98.1 [3A26D2B1] [BD889A69]           
 15   98.3 [A5EE3F7D] [693866E9]           
 16   80.2 [5D8F60F0] [2A7DE258]           
 17   97.7 [EA86915E] [95A4CF6E]           
 18   97.7 [DCB80B06] [F2C96BBD]           



Create a new paste based on this one


Comments: