[ create a new paste ] login | about

Link: http://codepad.org/aNbJtUT1    [ raw code | fork ]

Plain Text, pasted on Mar 30:
foobar2000 1.3.17 / Dynamic Range Meter 1.1.1
log date: 2018-03-30 06:12:47

--------------------------------------------------------------------------------
Analyzed: Ray Charles / Ray Charles At The Olympia
--------------------------------------------------------------------------------

DR         Peak         RMS     Duration Track
--------------------------------------------------------------------------------
DR12      -0.98 dB   -17.77 dB      1:17 01-Blues for Big Scotia
DR12      -1.14 dB   -18.00 dB      7:05 02-Just the Way You Look Tonight
DR15      -0.74 dB   -17.87 dB      4:51 03-Route 66
DR13      -0.69 dB   -17.79 dB      6:15 04-Song for You
DR11      -0.90 dB   -14.98 dB      3:10 05-Hallelujah, I Love Her So
DR14      -0.72 dB   -18.52 dB      6:13 06-Georgia on My Mind
DR10      -0.49 dB   -13.56 dB      4:46 07-Stranger in My Own Home Town
DR12      -0.55 dB   -17.77 dB      5:52 08-Angelina
DR12      -1.01 dB   -16.53 dB      5:50 09-I Got a Woman
DR12      -0.93 dB   -16.81 dB      5:37 10-Hey Girl
DR12      -0.62 dB   -14.05 dB      2:18 11-Almost Like Being in Love Again
DR12      -1.06 dB   -17.13 dB      5:18 12-Just for a Thrill
DR13      -0.54 dB   -16.80 dB      5:27 13-It Had to Be You
DR11      -0.01 dB   -13.66 dB      5:45 14-What’d I Say
--------------------------------------------------------------------------------

Number of tracks:  14
Official DR value: DR12

Samplerate:        88200 Hz
Channels:          6
Bits per sample:   24
Bitrate:           8034 kbps
Codec:             FLAC
================================================================================




Create a new paste based on this one


Comments: