[ create a new paste ] login | about

Link: http://codepad.org/aNqitz3o    [ raw code | fork ]

Plain Text, pasted on Jul 29:
foobar2000 1.4.4 / Dynamic Range Meter 1.1.1
log date: 2019-07-28 23:12:59

--------------------------------------------------------------------------------
Analyzed: Tangerine Dream / Ricochet
--------------------------------------------------------------------------------

DR         Peak         RMS     Duration Track
--------------------------------------------------------------------------------
DR11      -0.70 dB   -16.81 dB     17:09 01-Ricochet Part 1
DR13      -0.70 dB   -18.65 dB     21:22 02-Ricochet Part 2
--------------------------------------------------------------------------------

Number of tracks:  2
Official DR value: DR12

Samplerate:        96000 Hz
Channels:          2
Bits per sample:   24
Bitrate:           2298 kbps
Codec:             FLAC
================================================================================


foobar2000 1.4.4 / Dynamic Range Meter 1.1.1
log date: 2019-07-28 23:12:45

--------------------------------------------------------------------------------
Analyzed: Tangerine Dream / Ricochet
--------------------------------------------------------------------------------

DR         Peak         RMS     Duration Track
--------------------------------------------------------------------------------
DR12      -0.40 dB   -18.56 dB     17:02 01-Ricochet Part 1
DR15      -0.40 dB   -19.54 dB     21:06 02-Ricochet Part 2
--------------------------------------------------------------------------------

Number of tracks:  2
Official DR value: DR14

Samplerate:        96000 Hz
Channels:          2
Bits per sample:   24
Bitrate:           2918 kbps
Codec:             FLAC
================================================================================


foobar2000 1.4.4 / Dynamic Range Meter 1.1.1
log date: 2019-07-28 23:12:31

--------------------------------------------------------------------------------
Analyzed: Tangerine Dream / Ricochet
--------------------------------------------------------------------------------

DR         Peak         RMS     Duration Track
--------------------------------------------------------------------------------
DR13      -0.10 dB   -21.51 dB     17:08 01-Ricochet Part 1
DR15      -0.10 dB   -22.50 dB     21:23 02-Ricochet Part 2
--------------------------------------------------------------------------------

Number of tracks:  2
Official DR value: DR14

Samplerate:        96000 Hz
Channels:          6
Bits per sample:   24
Bitrate:           5123 kbps
Codec:             FLAC
================================================================================




Create a new paste based on this one


Comments: