[ create a new paste ] login | about

Link: http://codepad.org/aRvOfa9z    [ raw code | fork ]

Plain Text, pasted on Apr 20:
foobar2000 1.2.2 / Dynamic Range Meter 1.1.1
log date: 2013-04-09 10:05:39

--------------------------------------------------------------------------------
Analyzed: Isao Tomita / Symphony Ihatov (Hybrid SACD)
--------------------------------------------------------------------------------

DR         Peak         RMS     Duration Track
--------------------------------------------------------------------------------
DR8       -0.34 dB   -22.11 dB      2:45 01-Symphony Ihatov: Iwatesan No Ohwashi (Taneyamagahara No Bokka)
DR8       -0.22 dB   -18.07 dB      4:10 02-Symphony Ihatov: Kenbai/Hoshimeguri No Uta
DR10      -0.20 dB   -22.14 dB      6:04 03-Symphony Ihatov: Chuumon No Ooi Ryoriten
DR9       -0.33 dB   -20.20 dB      4:37 04-Symphony Ihatov: Kaze No Matasaburou
DR9       -0.29 dB   -21.86 dB      8:53 05-Symphony Ihatov: Gingatetsudou No Yoru
DR10      -0.65 dB   -27.27 dB      5:10 06-Symphony Ihatov: Ame Nimo Makezu
DR10      -0.21 dB   -22.55 dB      4:15 07-Symphony Ihatov: Iwatesan No Oowashi (Taneyamagahara No Bokka)
DR8       -0.01 dB   -18.38 dB      3:44 08-Ribon No Kishi
DR7       -0.12 dB   -17.78 dB      3:19 09-Aoi Chikyu Wa Darenomono
--------------------------------------------------------------------------------

Number of tracks:  9
Official DR value: DR9

Samplerate:        88200 Hz
Channels:          6
Bits per sample:   24
Bitrate:           5471 kbps
Codec:             FLAC
================================================================================




Create a new paste based on this one


Comments: