[ create a new paste ] login | about

Link: http://codepad.org/aVotQeHQ    [ raw code | fork ]

Plain Text, pasted on Jan 6:
[CUETools log; Date: 1/6/2017 9:29:17 AM; Version: 2.1.5]
[CTDB TOCID: e0xCwF1mPlkrx9fZzW4XAjViuvo-] found.
Track | CTDB Status
  1   | (25/26) Accurately ripped
  2   | (25/26) Accurately ripped
  3   | (25/26) Accurately ripped
  4   | (26/26) Accurately ripped
  5   | (26/26) Accurately ripped
  6   | (26/26) Accurately ripped
  7   | (26/26) Accurately ripped
  8   | (26/26) Accurately ripped
[AccurateRip ID: 000ba854-004b9e3d-6e085c08] found.
Track   [  CRC   |   V2   ] Status
 01     [a5d0bf59|546689db] (14+15/39) Accurately ripped
 02     [a08cab70|247a7755] (15+14/39) Accurately ripped
 03     [bd9fe666|75eaee0a] (14+14/38) Accurately ripped
 04     [aacc32df|bcf672cc] (15+16/41) Accurately ripped
 05     [f6b42860|066d1fbb] (14+14/38) Accurately ripped
 06     [04f66d50|a5fc326c] (14+14/38) Accurately ripped
 07     [eb0b26b7|1fa0d4db] (14+15/39) Accurately ripped
 08     [38dedfa3|8e0a75e4] (15+17/42) Accurately ripped
Offsetted by -2040:
 01     [abcf9cc1] (03/39) Accurately ripped
 02     [ea823c00] (03/39) Accurately ripped
 03     [4fa91ff6] (03/38) Accurately ripped
 04     [6b7ba027] (03/41) Accurately ripped
 05     [8abba378] (03/38) Accurately ripped
 06     [843d8108] (03/38) Accurately ripped
 07     [7bc8651f] (03/39) Accurately ripped
 08     [525706db] (03/42) Accurately ripped
Offsetted by 18:
 01     [ccea5b83] (02/39) Accurately ripped
 02     [78be74b4] (02/39) Accurately ripped
 03     [a07a2bea] (02/38) Accurately ripped
 04     [feeecac1] (02/41) Accurately ripped
 05     [9f8ff356] (02/38) Accurately ripped
 06     [0da0b7ae] (02/38) Accurately ripped
 07     [90eb5d21] (02/39) Accurately ripped
 08     [d6c375e1] (02/42) Accurately ripped
Offsetted by -1531:
 01     [61075cba] (00/39) No match (V2 was not tested)
 02     [cc0213ca] (00/39) No match (V2 was not tested)
 03     [de8c7860] (00/38) No match (V2 was not tested)
 04     [b6a32e2c] (00/41) No match (V2 was not tested)
 05     [3fe6724f] (00/38) No match (V2 was not tested)
 06     [322962a3] (00/38) No match (V2 was not tested)
 07     [f90ca0b8] (00/39) No match (V2 was not tested)
 08     [6dde1126] (00/42) No match (V2 was not tested)

Track Peak [ CRC32  ] [W/O NULL] [  LOG   ]
 --  100.0 [3F7D8AC2] [FC9EC2C7]  W/O NULL 
 01  100.0 [8F019F19] [239226EC]           
 02  100.0 [25227767] [8A6D4516]           
 03   66.0 [0FE4D44E] [A48F2BE0]           
 04  100.0 [F8BF3B02] [97E5F383]           
 05   97.9 [2BECEAA9] [9F7FF130]           
 06   99.6 [2D99C0AC] [C4FF8C0C]           
 07  100.0 [15E387A1] [ACA650F0]           
 08  100.0 [C93AEA14] [C48BF359]           



Create a new paste based on this one


Comments: