[ create a new paste ] login | about

Link: http://codepad.org/aZHfwZn4    [ raw code | fork ]

Plain Text, pasted on Mar 26:
Exact Audio Copy V1.1 from 23. June 2015

EAC extraction logfile from 6. March 2016, 13:23

Simply Red / Song Book 1985 - 2010 [Disc One]

Used drive  : hp      CDDVDW SH-216BB   Adapter: 1  ID: 0

Read mode               : Secure
Utilize accurate stream : Yes
Defeat audio cache      : Yes
Make use of C2 pointers : No

Read offset correction                      : 6
Overread into Lead-In and Lead-Out          : No
Fill up missing offset samples with silence : Yes
Delete leading and trailing silent blocks   : No
Null samples used in CRC calculations       : Yes
Used interface                              : Native Win32 interface for Win NT & 2000

Used output format : Internal WAV Routines
Sample format      : 44.100 Hz; 16 Bit; Stereo


TOC of the extracted CD

     Track |   Start  |  Length  | Start sector | End sector 
    ---------------------------------------------------------
        1  |  0:00.00 |  4:14.67 |         0    |    19116   
        2  |  4:14.67 |  4:30.08 |     19117    |    39374   
        3  |  8:45.00 |  4:32.67 |     39375    |    59841   
        4  | 13:17.67 |  4:04.18 |     59842    |    78159   
        5  | 17:22.10 |  3:57.52 |     78160    |    95986   
        6  | 21:19.62 |  6:52.74 |     95987    |   126960   
        7  | 28:12.61 |  4:21.06 |    126961    |   146541   
        8  | 32:33.67 |  4:20.72 |    146542    |   166113   
        9  | 36:54.64 |  3:25.14 |    166114    |   181502   
       10  | 40:20.03 |  4:13.73 |    181503    |   200550   
       11  | 44:34.01 |  4:59.30 |    200551    |   223005   
       12  | 49:33.31 |  3:24.48 |    223006    |   238353   
       13  | 52:58.04 |  3:57.33 |    238354    |   256161   
       14  | 56:55.37 |  3:56.64 |    256162    |   273925   
       15  | 60:52.26 |  5:12.51 |    273926    |   297376   


Range status and errors

Selected range

     Filename C:\Users\Arturs\Desktop\Simply Red - Song Book 1985 - 2010 [Disc One].wav

     Peak level 100.0 %
     Extraction speed 4.9 X
     Range quality 100.0 %
     Test CRC B98B55F1
     Copy CRC B98B55F1
     Copy OK

No errors occurred

 
AccurateRip summary
 
Track  1  accurately ripped (confidence 13)  [54006A5E]  (AR v2)
Track  2  accurately ripped (confidence 13)  [9ED85716]  (AR v2)
Track  3  accurately ripped (confidence 13)  [53012C10]  (AR v2)
Track  4  accurately ripped (confidence 13)  [605CAD65]  (AR v2)
Track  5  accurately ripped (confidence 13)  [C3576C0D]  (AR v2)
Track  6  accurately ripped (confidence 13)  [9EB7BF60]  (AR v2)
Track  7  accurately ripped (confidence 13)  [E0F58B26]  (AR v2)
Track  8  accurately ripped (confidence 13)  [46A457F7]  (AR v2)
Track  9  accurately ripped (confidence 13)  [950A2A42]  (AR v2)
Track 10  accurately ripped (confidence 13)  [B20B8D63]  (AR v2)
Track 11  accurately ripped (confidence 13)  [3D695312]  (AR v2)
Track 12  accurately ripped (confidence 13)  [12FBE53A]  (AR v2)
Track 13  accurately ripped (confidence 13)  [9F34FB9D]  (AR v2)
Track 14  accurately ripped (confidence 13)  [52DD9894]  (AR v2)
Track 15  accurately ripped (confidence 13)  [4EF83B2A]  (AR v2)
 
All tracks accurately ripped

End of status report

---- CUETools DB Plugin V2.1.6

[CTDB TOCID: ijn_KTQr.u7QhRjQb3GqijkfzLA-] found
Submit result: ijn_KTQr.u7QhRjQb3GqijkfzLA- has been confirmed
Track | CTDB Status
  1   | (33/33) Accurately ripped
  2   | (33/33) Accurately ripped
  3   | (33/33) Accurately ripped
  4   | (33/33) Accurately ripped
  5   | (33/33) Accurately ripped
  6   | (33/33) Accurately ripped
  7   | (33/33) Accurately ripped
  8   | (33/33) Accurately ripped
  9   | (33/33) Accurately ripped
 10   | (33/33) Accurately ripped
 11   | (33/33) Accurately ripped
 12   | (33/33) Accurately ripped
 13   | (33/33) Accurately ripped
 14   | (33/33) Accurately ripped
 15   | (33/33) Accurately ripped


==== Log checksum 2227455EAC295FFBBEB88AC3FFA024D649ADAF03B3441824E8738BEED3682E10 ====



Create a new paste based on this one


Comments: