[ create a new paste ] login | about

Link: http://codepad.org/acDcAQJw    [ raw code | fork ]

Plain Text, pasted on Dec 7:
foobar2000 1.3.16 / Dynamic Range Meter 1.1.1
log date: 2017-12-07 10:51:16

--------------------------------------------------------------------------------
Analyzed: Emerson, Lake & Palmer / Brain Salad Surgery (Deluxe Edition) Disc 1
--------------------------------------------------------------------------------

DR         Peak         RMS     Duration Track
--------------------------------------------------------------------------------
DR7       -0.10 dB   -10.43 dB      2:46 01-Jerusalem
DR9       -0.10 dB   -12.75 dB      7:23 02-Toccata (An Adaptation Of Ginastera's 1St Piano Concerto, 4Th Movement)
DR12      -0.10 dB   -17.30 dB      2:53 03-Still...You Turn Me On
DR11      -0.10 dB   -14.19 dB      2:21 04-Benny The Bouncer
DR10      -0.10 dB   -11.79 dB      8:35 05-Karn Evil 9: 1st Impression - Part 1
DR9       -0.10 dB   -11.80 dB      4:48 06-Karn Evil 9: 1st Impression - Part 2
DR13      -0.10 dB   -16.93 dB      7:07 07-Karn Evil 9: 2nd Impression
DR10      -0.10 dB   -13.46 dB      9:05 08-Karn Evil 9: 3rd Impression
--------------------------------------------------------------------------------

Number of tracks:  8
Official DR value: DR10

Samplerate:        44100 Hz
Channels:          2
Bits per sample:   16
Bitrate:           957 kbps
Codec:             FLAC
================================================================================




Create a new paste based on this one


Comments: