[ create a new paste ] login | about

Link: http://codepad.org/ad7pRooe    [ raw code | fork ]

Plain Text, pasted on Dec 7:
Exact Audio Copy V0.99 prebeta 4 from 23. January 2008

EAC extraction logfile from 30. October 2008, 11:37

Emerson Lake & Palmer / Brain Salad Surgery (Bonus Disc)

Used drive  : HL-DT-STDVDRRW GSA-H30L   Adapter: 0  ID: 1

Read mode               : Secure
Utilize accurate stream : Yes
Defeat audio cache      : Yes
Make use of C2 pointers : No

Read offset correction                      : 102
Overread into Lead-In and Lead-Out          : No
Fill up missing offset samples with silence : Yes
Delete leading and trailing silent blocks   : No
Null samples used in CRC calculations       : Yes
Used interface                              : Installed external ASPI interface
Gap handling                                : Appended to previous track

Used output format              : User Defined Encoder
Selected bitrate                : 1024 kBit/s
Quality                         : High
Add ID3 tag                     : No
Command line compressor         : C:\Program Files\Exact Audio Copy\Flac\flac.exe
Additional command line options : -8 -V -T "ARTIST=%a" -T "TITLE=%t" -T "ALBUM=%g" -T "DATE=%y" -T "TRACKNUMBER=%n" -T "GENRE=%m" -T "COMMENT=EAC FLAC -8-oan" %s


TOC of the extracted CD

     Track |   Start  |  Length  | Start sector | End sector 
    ---------------------------------------------------------
        1  |  0:00.00 |  3:58.56 |         0    |    17905   
        2  |  3:58.56 |  3:08.01 |     17906    |    32006   
        3  |  7:06.57 |  9:09.40 |     32007    |    73221   
        4  | 16:16.22 |  2:46.28 |     73222    |    85699   
        5  | 19:02.50 |  2:53.29 |     85700    |    98703   
        6  | 21:56.04 |  7:22.45 |     98704    |   131898   
        7  | 29:18.49 |  8:34.47 |    131899    |   170495   
        8  | 37:53.21 |  4:48.33 |    170496    |   192128   
        9  | 42:41.54 |  7:07.08 |    192129    |   224161   
       10  | 49:48.62 |  9:05.24 |    224162    |   265060   
       11  | 58:54.11 |  3:07.35 |    265061    |   279120   
       12  | 62:01.46 |  2:52.08 |    279121    |   292028   


Track  1

     Filename C:\oan\01 - When The Apple Blossoms Bloom In The Windmills Of Your Mind I'll Be Your Valentine Time.wav

     Pre-gap length  0:00:02.00

     Peak level 98.8 %
     Track quality 99.9 %
     Test CRC FA3D1903
     Copy CRC FA3D1903
     Track not present in AccurateRip database
     Copy OK

Track  2

     Filename C:\oan\02 - Brain Salad Surgery.wav

     Pre-gap length  0:00:01.76

     Peak level 98.8 %
     Track quality 100.0 %
     Test CRC F99AFE11
     Copy CRC F99AFE11
     Track not present in AccurateRip database
     Copy OK

Track  3

     Filename C:\oan\03 - Karn Evil 9- 3rd Impression (Original Backing Track).wav

     Pre-gap length  0:00:01.77

     Peak level 98.8 %
     Track quality 100.0 %
     Test CRC 82F9BD09
     Copy CRC 82F9BD09
     Track not present in AccurateRip database
     Copy OK

Track  4

     Filename C:\oan\04 - Jerusalem.wav

     Pre-gap length  0:00:01.64

     Peak level 98.8 %
     Track quality 99.9 %
     Test CRC 027AB0A7
     Copy CRC 027AB0A7
     Track not present in AccurateRip database
     Copy OK

Track  5

     Filename C:\oan\05 - Still ... You Turn Me On.wav

     Pre-gap length  0:00:01.58

     Peak level 98.8 %
     Track quality 100.0 %
     Test CRC 7E6E5B06
     Copy CRC 7E6E5B06
     Track not present in AccurateRip database
     Copy OK

Track  6

     Filename C:\oan\06 - Toccatta (First Mix).wav

     Peak level 98.8 %
     Track quality 100.0 %
     Test CRC C6416AE7
     Copy CRC C6416AE7
     Track not present in AccurateRip database
     Copy OK

Track  7

     Filename C:\oan\07 - Karn Evil 9 1st Impression #1 (35th Anniversary Version).wav

     Peak level 98.8 %
     Track quality 100.0 %
     Test CRC C9203622
     Copy CRC C9203622
     Track not present in AccurateRip database
     Copy OK

Track  8

     Filename C:\oan\08 - Karn Evil 9 1st Impression #2 (35th Anniversary Version).wav

     Peak level 98.8 %
     Track quality 100.0 %
     Test CRC 9FB7B0A5
     Copy CRC 9FB7B0A5
     Track not present in AccurateRip database
     Copy OK

Track  9

     Filename C:\oan\09 - Karn Evil 9 2nd Impression (35th Anniversary Version).wav

     Peak level 98.8 %
     Track quality 100.0 %
     Test CRC 573615F3
     Copy CRC 573615F3
     Track not present in AccurateRip database
     Copy OK

Track 10

     Filename C:\oan\10 - Karn Evil 9 3rd Impression (35th Anniversary Version).wav

     Peak level 98.8 %
     Track quality 100.0 %
     Test CRC 2994343E
     Copy CRC 2994343E
     Track not present in AccurateRip database
     Copy OK

Track 11

     Filename C:\oan\11 - Excerpts From Brain Salad Surgery (NME Flexidisc).wav

     Pre-gap length  0:00:01.36

     Peak level 98.8 %
     Track quality 100.0 %
     Test CRC 86B47973
     Copy CRC 86B47973
     Track not present in AccurateRip database
     Copy OK

Track 12

     Filename C:\oan\12 - Hidden Track.wav

     Pre-gap length  0:00:00.62

     Peak level 98.8 %
     Track quality 100.0 %
     Test CRC D5933DB4
     Copy CRC D5933DB4
     Track not present in AccurateRip database
     Copy OK


None of the tracks are present in the AccurateRip database

No errors occurred

End of status report



Create a new paste based on this one


Comments: