[ create a new paste ] login | about

Link: http://codepad.org/adF1JPTa    [ raw code | fork ]

Plain Text, pasted on Dec 19:
CD1
->
Exact Audio Copy V1.1 from 23. June 2015

EAC extraction logfile from 28. May 2017, 9:21

Jethro Tull / Songs From The Wood CD1

Used drive  : PLEXTOR BD-R  PX-B950SA   Adapter: 1  ID: 1

Read mode               : Secure
Utilize accurate stream : Yes
Defeat audio cache      : Yes
Make use of C2 pointers : No

Read offset correction                      : 6
Overread into Lead-In and Lead-Out          : No
Fill up missing offset samples with silence : Yes
Delete leading and trailing silent blocks   : No
Null samples used in CRC calculations       : Yes
Used interface                              : Native Win32 interface for Win NT & 2000

Used output format : Internal WAV Routines
Sample format      : 44.100 Hz; 16 Bit; Stereo


TOC of the extracted CD

     Track |   Start  |  Length  | Start sector | End sector 
    ---------------------------------------------------------
        1  |  0:00.00 |  4:55.55 |         0    |    22179   
        2  |  4:55.55 |  2:31.39 |     22180    |    33543   
        3  |  7:27.19 |  4:34.23 |     33544    |    54116   
        4  | 12:01.42 |  5:10.10 |     54117    |    77376   
        5  | 17:11.52 |  3:48.35 |     77377    |    94511   
        6  | 21:00.12 |  6:05.12 |     94512    |   121898   
        7  | 27:05.24 |  3:31.64 |    121899    |   137787   
        8  | 30:37.13 |  8:35.51 |    137788    |   176463   
        9  | 39:12.64 |  2:27.48 |    176464    |   187536   
       10  | 41:40.37 |  8:41.19 |    187537    |   226630   
       11  | 50:21.56 |  5:11.66 |    226631    |   250021   
       12  | 55:33.47 |  3:25.08 |    250022    |   265404   
       13  | 58:58.55 |  4:53.50 |    265405    |   287429   
       14  | 63:52.30 |  2:35.69 |    287430    |   299123   
       15  | 66:28.24 |  3:35.18 |    299124    |   315266   
       16  | 70:03.42 |  3:19.48 |    315267    |   330239   
       17  | 73:23.15 |  3:32.06 |    330240    |   346145   


Range status and errors

Selected range

     Filename C:\Jethro Tull\1977 Songs From The Wood (5 Discs Box Set Chrysalis Records 2017)\CD1\Jethro Tull - Songs From The Wood CD1.wav

     Peak level 100.0 %
     Extraction speed 8.6 X
     Range quality 100.0 %
     Test CRC 6925C900
     Copy CRC 6925C900
     Copy OK

No errors occurred

 
AccurateRip summary
 
Track  1  not present in database
Track  2  not present in database
Track  3  not present in database
Track  4  not present in database
Track  5  not present in database
Track  6  not present in database
Track  7  not present in database
Track  8  not present in database
Track  9  not present in database
Track 10  not present in database
Track 11  not present in database
Track 12  not present in database
Track 13  not present in database
Track 14  not present in database
Track 15  not present in database
Track 16  not present in database
Track 17  not present in database
 
None of the tracks are present in the AccurateRip database

End of status report

---- CUETools DB Plugin V2.1.6

[CTDB TOCID: BKDm.mvq4LW_o16EKi648M_fAzs-] found
Submit result: BKDm.mvq4LW_o16EKi648M_fAzs- has been confirmed
Track | CTDB Status
  1   | (68/68) Accurately ripped
  2   | (68/68) Accurately ripped
  3   | (68/68) Accurately ripped
  4   | (68/68) Accurately ripped
  5   | (68/68) Accurately ripped
  6   | (68/68) Accurately ripped
  7   | (68/68) Accurately ripped
  8   | (68/68) Accurately ripped
  9   | (68/68) Accurately ripped
 10   | (68/68) Accurately ripped
 11   | (68/68) Accurately ripped
 12   | (68/68) Accurately ripped
 13   | (68/68) Accurately ripped
 14   | (68/68) Accurately ripped
 15   | (67/68) Accurately ripped
 16   | (68/68) Accurately ripped
 17   | (67/68) Accurately ripped


==== Log checksum 9B185F7FB142662FDA88BF6A0E70F8EF4FE31B0D6D119D30255DC7805BCC5C3A ====
->
=========================================================================================================================================================
->
CD2
->
Exact Audio Copy V1.1 from 23. June 2015

EAC extraction logfile from 28. May 2017, 8:52

Jethro Tull / Songs From The Wood CD2

Used drive  : PLEXTOR BD-R  PX-B950SA   Adapter: 1  ID: 1

Read mode               : Secure
Utilize accurate stream : Yes
Defeat audio cache      : Yes
Make use of C2 pointers : No

Read offset correction                      : 6
Overread into Lead-In and Lead-Out          : No
Fill up missing offset samples with silence : Yes
Delete leading and trailing silent blocks   : No
Null samples used in CRC calculations       : Yes
Used interface                              : Native Win32 interface for Win NT & 2000

Used output format : Internal WAV Routines
Sample format      : 44.100 Hz; 16 Bit; Stereo


TOC of the extracted CD

     Track |   Start  |  Length  | Start sector | End sector 
    ---------------------------------------------------------
        1  |  0:00.00 |  2:33.16 |         0    |    11490   
        2  |  2:33.16 |  4:04.72 |     11491    |    29862   
        3  |  6:38.13 |  3:14.71 |     29863    |    44483   
        4  |  9:53.09 | 13:15.12 |     44484    |   104120   
        5  | 23:08.21 |  6:01.44 |    104121    |   131239   
        6  | 29:09.65 |  2:27.42 |    131240    |   142306   
        7  | 31:37.32 |  4:16.49 |    142307    |   161555   
        8  | 35:54.06 |  2:33.49 |    161556    |   173079   
        9  | 38:27.55 |  2:54.47 |    173080    |   186176   
       10  | 41:22.27 |  8:14.54 |    186177    |   223280   
       11  | 49:37.06 |  2:32.38 |    223281    |   234718   


Range status and errors

Selected range

     Filename C:\Jethro Tull\1977 Songs From The Wood (5 Discs Box Set Chrysalis Records 2017)\CD2\Jethro Tull - Songs From The Wood CD2.wav

     Peak level 100.0 %
     Extraction speed 7.2 X
     Range quality 100.0 %
     Test CRC 2DBF7825
     Copy CRC 2DBF7825
     Copy OK

No errors occurred

 
AccurateRip summary
 
Track  1  not present in database
Track  2  not present in database
Track  3  not present in database
Track  4  not present in database
Track  5  not present in database
Track  6  not present in database
Track  7  not present in database
Track  8  not present in database
Track  9  not present in database
Track 10  not present in database
Track 11  not present in database
 
None of the tracks are present in the AccurateRip database

End of status report

---- CUETools DB Plugin V2.1.6

[CTDB TOCID: ly2pp9a9ymPJz4hEs0jG3teErGk-] found
Submit result: ly2pp9a9ymPJz4hEs0jG3teErGk- has been confirmed
Track | CTDB Status
  1   | (62/62) Accurately ripped
  2   | (62/62) Accurately ripped
  3   | (62/62) Accurately ripped
  4   | (62/62) Accurately ripped
  5   | (62/62) Accurately ripped
  6   | (62/62) Accurately ripped
  7   | (62/62) Accurately ripped
  8   | (62/62) Accurately ripped
  9   | (62/62) Accurately ripped
 10   | (62/62) Accurately ripped
 11   | (62/62) Accurately ripped


==== Log checksum 4FFC3108CD85E27BC792A430F5B85C57D3F03B4766A4F6CE8D050CB7B68E8588 ====
->
=========================================================================================================================================================
->
CD3
->
Exact Audio Copy V1.1 from 23. June 2015

EAC extraction logfile from 28. May 2017, 8:22

Jethro Tull / Songs From The Wood CD3

Used drive  : PLEXTOR BD-R  PX-B950SA   Adapter: 1  ID: 1

Read mode               : Secure
Utilize accurate stream : Yes
Defeat audio cache      : Yes
Make use of C2 pointers : No

Read offset correction                      : 6
Overread into Lead-In and Lead-Out          : No
Fill up missing offset samples with silence : Yes
Delete leading and trailing silent blocks   : No
Null samples used in CRC calculations       : Yes
Used interface                              : Native Win32 interface for Win NT & 2000

Used output format : Internal WAV Routines
Sample format      : 44.100 Hz; 16 Bit; Stereo


TOC of the extracted CD

     Track |   Start  |  Length  | Start sector | End sector 
    ---------------------------------------------------------
        1  |  0:00.00 |  6:26.19 |         0    |    28968   
        2  |  6:26.19 |  5:39.40 |     28969    |    54433   
        3  | 12:05.59 |  4:16.36 |     54434    |    73669   
        4  | 16:22.20 |  5:39.73 |     73670    |    99167   
        5  | 22:02.18 |  3:45.50 |     99168    |   116092   
        6  | 25:47.68 |  8:32.36 |    116093    |   154528   
        7  | 34:20.29 |  3:31.19 |    154529    |   170372   
        8  | 37:51.48 |  4:54.33 |    170373    |   192455   
        9  | 42:46.06 |  7:15.69 |    192456    |   225149   
       10  | 50:02.00 |  5:47.29 |    225150    |   251203   
       11  | 55:49.29 |  4:00.26 |    251204    |   269229   


Range status and errors

Selected range

     Filename C:\Jethro Tull\1977 Songs From The Wood (5 Discs Box Set Chrysalis Records 2017)\CD3\Jethro Tull - Songs From The Wood CD3.wav

     Peak level 100.0 %
     Extraction speed 7.4 X
     Range quality 100.0 %
     Test CRC F88D6222
     Copy CRC F88D6222
     Copy OK

No errors occurred

 
AccurateRip summary
 
Track  1  not present in database
Track  2  not present in database
Track  3  not present in database
Track  4  not present in database
Track  5  not present in database
Track  6  not present in database
Track  7  not present in database
Track  8  not present in database
Track  9  not present in database
Track 10  not present in database
Track 11  not present in database
 
None of the tracks are present in the AccurateRip database

End of status report

---- CUETools DB Plugin V2.1.6

[CTDB TOCID: drLO0OPfiklngSw_OMWHGnjlx0E-] found
Submit result: drLO0OPfiklngSw_OMWHGnjlx0E- has been confirmed
Track | CTDB Status
  1   | (63/63) Accurately ripped
  2   | (63/63) Accurately ripped
  3   | (63/63) Accurately ripped
  4   | (63/63) Accurately ripped
  5   | (63/63) Accurately ripped
  6   | (63/63) Accurately ripped
  7   | (63/63) Accurately ripped
  8   | (63/63) Accurately ripped
  9   | (63/63) Accurately ripped
 10   | (63/63) Accurately ripped
 11   | (63/63) Accurately ripped


==== Log checksum D0536345339B5E98CC0C705E6DC2625258A0D5A2521C8AEEC6332FCA4F39DBC5 ====



Create a new paste based on this one


Comments: