[ create a new paste ] login | about

Link: http://codepad.org/adJE8Jpv    [ raw code | fork ]

Plain Text, pasted on Sep 12:
foobar2000 1.2.8 / Dynamic Range Meter 1.1.1
log date: 2013-09-30 14:37:31

--------------------------------------------------------------------------------
Analyzed: Frankie Goes To Hollywood / Rage Hard - The Sonic Collection (Hybrid SACD)
--------------------------------------------------------------------------------

DR         Peak         RMS     Duration Track
--------------------------------------------------------------------------------
DR9       -0.01 dB   -11.81 dB      3:59 01-Relax
DR9       -1.44 dB   -13.04 dB      3:25 02-Two Tribes
DR9       -1.47 dB   -13.16 dB      4:06 03-Ferry Cross The Mersey
DR13      -2.65 dB   -20.44 dB      1:59 04-The World Is My Oyster
DR10      -1.02 dB   -15.12 dB     13:45 05-Welcome To The Pleasuredome
DR9       -1.01 dB   -13.78 dB      5:36 06-Maximum Joy
DR12      -1.72 dB   -15.69 dB      3:11 07-San Jose
DR10      -1.25 dB   -13.79 dB      5:01 08-Warriors Of The Wasteland
DR8       -1.46 dB   -11.92 dB      5:05 09-Rage Hard
DR9       -0.93 dB   -14.43 dB      6:16 10-War
DR10      -1.44 dB   -12.89 dB      4:20 11-Watching The Wildlife
DR8       -1.19 dB   -11.33 dB      4:08 12-Born To Run
DR10      -1.29 dB   -14.18 dB      5:49 13-The Power Of Love
--------------------------------------------------------------------------------

Number of tracks:  13
Official DR value: DR10

Samplerate:        88200 Hz
Channels:          2
Bits per sample:   24
Bitrate:           2629 kbps
Codec:             FLAC
================================================================================




Create a new paste based on this one


Comments: